forked from ESE/ESE
547 lines
12 KiB
Plaintext
547 lines
12 KiB
Plaintext
//TJADB Project
|
|
TITLE:Y.M.C.A. -Old Audio-
|
|
TITLEJA:Y.M.C.A.
|
|
SUBTITLE:--Hideki Saijo
|
|
BPM:133
|
|
WAVE:Y.M.C.A. -Old Audio-.ogg
|
|
OFFSET:-3.157
|
|
DEMOSTART:46.425
|
|
|
|
COURSE:Oni
|
|
LEVEL:5
|
|
|
|
STYLE:Double
|
|
BALLOON:16
|
|
SCOREINIT:1000
|
|
SCOREDIFF:200
|
|
|
|
|
|
#START P1
|
|
|
|
|
|
100000000000000000100000100000000000000000000000,
|
|
000000100000100000100100000100100000100000000000,
|
|
100000000000000000100000100000000000000000000000,
|
|
000000100000100000100100000100100000100000000000,
|
|
100000000000000000100100100000000000000000100100,
|
|
100000000000100100100000100100100000100100100000,
|
|
300000400000000000000000000000000000100100100000,
|
|
100000200000100000200000000000100000200000000000,
|
|
300000400000000000000000000000000000100100100000,
|
|
100000200000100000200000000000100000200000000000,
|
|
300000400000000000000000000000000000100100100000,
|
|
100000200000100000200000000000100000200000000000,
|
|
100100100000200000100100100000200000100100100000,
|
|
200000100100100000200000100000000000100000000000,
|
|
300000400000000000000000000000000000100100100000,
|
|
100000200000100000200000000000100000200000000000,
|
|
300000400000000000000000000000000000100100100000,
|
|
100000200000100000200000000000100000200000000000,
|
|
300000400000000000000000000000000000100100100000,
|
|
100000200000100000200000000000100000200000000000,
|
|
100100100000200000100100100000200000100100100000,
|
|
200000100100100000200000100000000000100000000000,
|
|
300000000000300000000000300000000000300000000000,
|
|
300000000000000000000000200200100100100000000000,
|
|
|
|
#GOGOSTART
|
|
400000000000000000000000300000000000400000300000,
|
|
000000100100100000100000100100100000100000100000,
|
|
400000000000000000000000300000000000400000300000,
|
|
000000200200200000200000200200200000200000200000,
|
|
100200100200100000100000100200100200100000000000,
|
|
100200100200100000100000100200100200100000000000,
|
|
100000100100100000100100100000100100100000100000,
|
|
100100100100100100100000500000000000000008000000,
|
|
400000000000000000000000300000000000400000300000,
|
|
000000100100100000100000100100100000100000100000,
|
|
400000000000000000000000300000000000400000300000,
|
|
000000200200200000200000200200200000200000200000,
|
|
100200100200100000100000100200100200100000000000,
|
|
100200100200100000100000100200100200100000000000,
|
|
100000100100100000100100100000100100100000100000,
|
|
700000000000000000000000000000000000000000800000,
|
|
|
|
#GOGOEND
|
|
|
|
|
|
#END
|
|
|
|
|
|
#START P2
|
|
|
|
|
|
100000000000000000100000100000000000000000000000,
|
|
000000100000100000100100000100100000100000000000,
|
|
100000000000000000100000100000000000000000000000,
|
|
000000100000100000100100000100100000100000000000,
|
|
100000000000000000100100100000000000000000100100,
|
|
100000000000100100100000100100100000100100100000,
|
|
300000400000000000000000000000000000100100100000,
|
|
100000200000100000200000000000100000200000000000,
|
|
300000400000000000000000000000000000100100100000,
|
|
100000200000100000200000000000100000200000000000,
|
|
300000400000000000000000000000000000100100100000,
|
|
100000200000100000200000000000100000200000000000,
|
|
100100100000200000100100100000200000100100100000,
|
|
200000100100100000200000100000000000100000000000,
|
|
300000400000000000000000000000000000100100100000,
|
|
100000200000100000200000000000100000200000000000,
|
|
300000400000000000000000000000000000100100100000,
|
|
100000200000100000200000000000100000200000000000,
|
|
300000400000000000000000000000000000100100100000,
|
|
100000200000100000200000000000100000200000000000,
|
|
100100100000200000100100100000200000100100100000,
|
|
200000100100100000200000100000000000100000000000,
|
|
300000000000300000000000300000000000300000000000,
|
|
300000000000000000000000200200100100100000000000,
|
|
|
|
#GOGOSTART
|
|
300000000000000000000000400000000000300000400000,
|
|
000000100100100000100000100100100000100000100000,
|
|
300000000000000000000000400000000000300000400000,
|
|
000000200200200000200000200200200000200000200000,
|
|
100200100200100000100000100200100200100000000000,
|
|
100200100200100000100000100200100200100000000000,
|
|
100000100100100000100100100000100100100000100000,
|
|
100100100100100100100000500000000000000008000000,
|
|
300000000000000000000000400000000000300000400000,
|
|
000000100100100000100000100100100000100000100000,
|
|
300000000000000000000000400000000000300000400000,
|
|
000000200200200000200000200200200000200000200000,
|
|
100200100200100000100000100200100200100000000000,
|
|
100200100200100000100000100200100200100000000000,
|
|
100000100100100000100100100000100100100000100000,
|
|
700000000000000000000000000000000000000000800000,
|
|
|
|
#GOGOEND
|
|
|
|
|
|
#END
|
|
|
|
|
|
COURSE:Hard
|
|
LEVEL:5
|
|
|
|
STYLE:Double
|
|
BALLOON:11,11,11
|
|
SCOREINIT:710
|
|
SCOREDIFF:250
|
|
|
|
|
|
#START P1
|
|
|
|
|
|
10011000,
|
|
0010101101101000,
|
|
10011000,
|
|
0010101101101000,
|
|
1000001110000011,
|
|
1,
|
|
|
|
#SECTION
|
|
#BRANCHSTART p,75,90
|
|
#N
|
|
33000011,
|
|
11110110,
|
|
33000011,
|
|
11110110,
|
|
33000011,
|
|
11110110,
|
|
10010010,
|
|
01001010,
|
|
|
|
#E
|
|
34000011,
|
|
11110110,
|
|
34000011,
|
|
11110110,
|
|
34000011,
|
|
11110110,
|
|
10210210,
|
|
21021010,
|
|
|
|
#M
|
|
34000011,
|
|
11120120,
|
|
34000011,
|
|
11120120,
|
|
34000011,
|
|
11120120,
|
|
10210210,
|
|
21021010,
|
|
|
|
#SECTION
|
|
#BRANCHSTART p,75,90
|
|
#N
|
|
33000011,
|
|
11110110,
|
|
33000011,
|
|
11110110,
|
|
33000011,
|
|
11110110,
|
|
10010010,
|
|
01001010,
|
|
3333,
|
|
30000011111000,
|
|
|
|
#E
|
|
34000011,
|
|
11110110,
|
|
34000011,
|
|
11110110,
|
|
34000011,
|
|
11110110,
|
|
10210210,
|
|
21021010,
|
|
3333,
|
|
30000011111000,
|
|
|
|
#M
|
|
34000011,
|
|
11120120,
|
|
34000011,
|
|
11120120,
|
|
34000011,
|
|
11120120,
|
|
10210210,
|
|
21021010,
|
|
3333,
|
|
30000022111000,
|
|
|
|
#GOGOSTART
|
|
#SECTION
|
|
#BRANCHSTART p,75,90
|
|
#N
|
|
30003033,
|
|
0000200010102000,
|
|
30003033,
|
|
00201120,
|
|
1011102010111000,
|
|
1011102010111000,
|
|
1011101110111000,
|
|
500000000000000000000000000000000008000000000000,
|
|
|
|
#E
|
|
40003043,
|
|
0000200011102000,
|
|
40003043,
|
|
0000200011102000,
|
|
1011101110111000,
|
|
1011101110111000,
|
|
1011101110111000,
|
|
500000000000000000000000000000000008000000000000,
|
|
|
|
#M
|
|
40003043,
|
|
0000200011102000,
|
|
40003043,
|
|
0000200011102000,
|
|
1011101110222020,
|
|
1011101110222020,
|
|
1011101110111000,
|
|
500000000000000000000000000000000008000000000000,
|
|
|
|
#SECTION
|
|
#BRANCHSTART p,75,90
|
|
#N
|
|
30003033,
|
|
0000200011102000,
|
|
30003033,
|
|
0000200011102000,
|
|
1011102010111000,
|
|
1011102010111000,
|
|
3434,
|
|
70000008,
|
|
|
|
#E
|
|
40003043,
|
|
0000200011102000,
|
|
40003043,
|
|
0000200011102000,
|
|
1011101110111000,
|
|
1011101110111000,
|
|
3434,
|
|
70000008,
|
|
|
|
#M
|
|
40003043,
|
|
0000200011102000,
|
|
40003043,
|
|
0000200011102000,
|
|
1011101110222020,
|
|
1011101110222020,
|
|
1011101110111011,
|
|
70000008,
|
|
|
|
#BRANCHEND
|
|
#GOGOEND
|
|
|
|
|
|
#END
|
|
|
|
|
|
#START P2
|
|
|
|
|
|
10011000,
|
|
0010101101101000,
|
|
10011000,
|
|
0010101101101000,
|
|
1000001110000011,
|
|
1,
|
|
|
|
#SECTION
|
|
#BRANCHSTART p,75,90
|
|
#N
|
|
33000011,
|
|
11110110,
|
|
33000011,
|
|
11110110,
|
|
33000011,
|
|
11110110,
|
|
10010010,
|
|
01001010,
|
|
|
|
#E
|
|
34000011,
|
|
11110110,
|
|
34000011,
|
|
11110110,
|
|
34000011,
|
|
11110110,
|
|
10210210,
|
|
21021010,
|
|
|
|
#M
|
|
34000011,
|
|
11120120,
|
|
34000011,
|
|
11120120,
|
|
34000011,
|
|
11120120,
|
|
10210210,
|
|
21021010,
|
|
|
|
#SECTION
|
|
#BRANCHSTART p,75,90
|
|
#N
|
|
33000011,
|
|
11110110,
|
|
33000011,
|
|
11110110,
|
|
33000011,
|
|
11110110,
|
|
10010010,
|
|
01001010,
|
|
3333,
|
|
30000011111000,
|
|
|
|
#E
|
|
34000011,
|
|
11110110,
|
|
34000011,
|
|
11110110,
|
|
34000011,
|
|
11110110,
|
|
10210210,
|
|
21021010,
|
|
3333,
|
|
30000011111000,
|
|
|
|
#M
|
|
34000011,
|
|
11120120,
|
|
34000011,
|
|
11120120,
|
|
34000011,
|
|
11120120,
|
|
10210210,
|
|
21021010,
|
|
3333,
|
|
30000022111000,
|
|
|
|
#GOGOSTART
|
|
#SECTION
|
|
#BRANCHSTART p,75,90
|
|
#N
|
|
40003044,
|
|
0000200010102000,
|
|
40004044,
|
|
00201120,
|
|
1011102010111000,
|
|
1011102010111000,
|
|
1011101110111000,
|
|
500000000000000000000000000000000008000000000000,
|
|
|
|
#E
|
|
30004034,
|
|
0000200011102000,
|
|
30004034,
|
|
0000200011102000,
|
|
1011101110111000,
|
|
1011101110111000,
|
|
1011101110111000,
|
|
500000000000000000000000000000000008000000000000,
|
|
|
|
#M
|
|
30004034,
|
|
0000200011102000,
|
|
30004034,
|
|
0000200011102000,
|
|
1011101110222020,
|
|
1011101110222020,
|
|
1011101110111000,
|
|
500000000000000000000000000000000008000000000000,
|
|
|
|
#SECTION
|
|
#BRANCHSTART p,75,90
|
|
#N
|
|
40004044,
|
|
0000200011102000,
|
|
40004044,
|
|
0000200011102000,
|
|
1011102010111000,
|
|
1011102010111000,
|
|
3434,
|
|
70000008,
|
|
|
|
#E
|
|
30004034,
|
|
0000200011102000,
|
|
30004034,
|
|
0000200011102000,
|
|
1011101110111000,
|
|
1011101110111000,
|
|
3434,
|
|
70000008,
|
|
|
|
#M
|
|
30004034,
|
|
0000200011102000,
|
|
30004034,
|
|
0000200011102000,
|
|
1011101110222020,
|
|
1011101110222020,
|
|
1011101110111011,
|
|
70000008,
|
|
|
|
#BRANCHEND
|
|
#GOGOEND
|
|
|
|
|
|
#END
|
|
|
|
|
|
COURSE:Normal
|
|
LEVEL:3
|
|
SCOREINIT:900
|
|
SCOREDIFF:480
|
|
|
|
|
|
#START
|
|
|
|
|
|
100000000000000000000000100000000000000000000000,
|
|
000000000000000000000000100000000000100000000000,
|
|
100000000000000000000000100000000000000000000000,
|
|
000000000000000000000000100000000000100000000000,
|
|
100000000000000000000000100000000000000000000000,
|
|
100000000000000000000000000000000000000000000000,
|
|
300000300000000000000000000000000000200000000000,
|
|
100000000000200000000000100000000000200000000000,
|
|
300000300000000000000000000000000000200000000000,
|
|
100000000000200000000000100000000000200000000000,
|
|
300000300000000000000000000000000000200000000000,
|
|
100000000000200000000000100000000000200000000000,
|
|
100000000000000000100000000000000000100000000000,
|
|
000000100000000000000000100000000000100000000000,
|
|
300000300000000000000000000000000000200000000000,
|
|
100000000000200000000000100000000000200000000000,
|
|
300000300000000000000000000000000000200000000000,
|
|
100000000000200000000000100000000000200000000000,
|
|
300000300000000000000000000000000000200000000000,
|
|
100000000000200000000000100000000000200000000000,
|
|
100000000000000000100000000000000000100000000000,
|
|
000000100000000000000000100000000000100000000000,
|
|
300000000000300000000000300000000000300000000000,
|
|
300000000000000000000000000000000000000000000000,
|
|
#GOGOSTART
|
|
100000000000000000000000100000000000100000100000,
|
|
000000000000200000000000000000000000200000000000,
|
|
100000000000000000000000100000000000100000100000,
|
|
000000000000200000000000000000000000200000000000,
|
|
100000000000200000000000000000000000200000000000,
|
|
100000000000200000000000000000000000200000000000,
|
|
100000000000100000000000100000000000100000000000,
|
|
500000000000000000000000000000800000000000000000,
|
|
100000000000000000000000100000000000100000100000,
|
|
000000000000200000000000000000000000200000000000,
|
|
100000000000000000000000100000000000100000100000,
|
|
000000000000200000000000000000000000200000000000,
|
|
100000000000200000000000000000000000200000000000,
|
|
100000000000200000000000000000000000200000000000,
|
|
100000000000200000000000100000000000200000000000,
|
|
300000000000000000000000000000000000000000000000,
|
|
#GOGOEND
|
|
|
|
|
|
#END
|
|
|
|
|
|
COURSE:Easy
|
|
LEVEL:2
|
|
SCOREINIT:1360
|
|
SCOREDIFF:830
|
|
|
|
|
|
#START
|
|
|
|
|
|
100000000000000000000000100000000000000000000000,
|
|
000000000000000000000000100000000000100000000000,
|
|
100000000000000000000000100000000000000000000000,
|
|
000000000000000000000000100000000000100000000000,
|
|
100000000000000000000000100000000000000000000000,
|
|
100000000000000000000000000000000000000000000000,
|
|
300000000000000000000000000000000000100000000000,
|
|
100000000000000000000000100000000000000000000000,
|
|
300000000000000000000000000000000000100000000000,
|
|
100000000000000000000000100000000000000000000000,
|
|
300000000000000000000000000000000000100000000000,
|
|
100000000000000000000000100000000000000000000000,
|
|
100000000000000000100000000000000000100000000000,
|
|
500000000000000000000000000000800000000000000000,
|
|
300000000000000000000000000000000000100000000000,
|
|
100000000000000000000000100000000000000000000000,
|
|
300000000000000000000000000000000000100000000000,
|
|
100000000000000000000000100000000000000000000000,
|
|
300000000000000000000000000000000000100000000000,
|
|
100000000000000000000000100000000000000000000000,
|
|
100000000000000000100000000000000000100000000000,
|
|
500000000000000000000000000000800000000000000000,
|
|
000000000000000000000000000000000000000000000000,
|
|
000000000000000000000000000000000000000000000000,
|
|
#GOGOSTART
|
|
100000000000000000000000100000000000100000000000,
|
|
000000000000000000000000000000000000000000000000,
|
|
100000000000000000000000100000000000100000000000,
|
|
000000000000000000000000000000000000000000000000,
|
|
000000000000200000000000000000000000200000000000,
|
|
000000000000200000000000000000000000200000000000,
|
|
100000000000000000000000100000000000000000000000,
|
|
500000000000000000000000000000800000000000000000,
|
|
100000000000000000000000100000000000100000000000,
|
|
000000000000000000000000000000000000000000000000,
|
|
100000000000000000000000100000000000100000000000,
|
|
000000000000000000000000000000000000000000000000,
|
|
000000000000200000000000000000000000200000000000,
|
|
000000000000200000000000000000000000200000000000,
|
|
100000000000000000000000100000000000000000000000,
|
|
300000000000000000000000000000000000000000000000,
|
|
#GOGOEND
|
|
|
|
|
|
#END
|
|
|