Files
ESE-ja-fix/01 Pop/Zenryoku Shounen/Zenryoku Shounen.tja
T
2023-06-15 19:15:39 -05:00

347 lines
9.8 KiB
Plaintext

//TJADB Project
TITLE:Zenryoku Shounen
TITLEJA:全力少年
SUBTITLE:--Sukima Switch/Onward
BPM:134.51
WAVE:Zenryoku Shounen.ogg
OFFSET:-7.430
DEMOSTART:73.655
COURSE:Oni
LEVEL:7
BALLOON:40,28
SCOREINIT:650
SCOREDIFF:150
#START
100000100000200000100000100000200000100000200000,
200000100000100000200000100000100000200000200000,
#BPMCHANGE 131.15
#SCROLL 1.02
100000200000100000100000200000100000100000200000,
#BPMCHANGE 135.9
#SCROLL 0.99
100000100000000000200000000000100000400000000000,
#BPMCHANGE 133.91
#SCROLL 1
100000100000200000200200100000100000200000100100,
#BPMCHANGE 134.24
100000100000200000200200100000100000200000100100,
100000100000200000200200100000100000200000200000,
#BPMCHANGE 133.53
100000100000200200200200100100100100200200200200,
#BPMCHANGE 133.22
#SCROLL 1.01
100000100000200000200200100000100000200000200000,
#BPMCHANGE 134.72
#SCROLL 0.99
100000100000200000200200100000100000200000100100,
#BPMCHANGE 132.91
#SCROLL 1.01
100000100000200000200200100000100000200000400000,
#BPMCHANGE 136.46
#SCROLL 0.98
000000000000200200200200100200100200100100100000,
#BPMCHANGE 131.99
#SCROLL 1.02
400000000000000000000000000000100000200200200000,
#BPMCHANGE 133.98
#SCROLL 1
100000100000200000100100100000100000200000200200,
#BPMCHANGE 135.49
#SCROLL 0.99
100000100000200000100200100100100000200000100100,
#BPMCHANGE 133.16
#SCROLL 1.01
100000100000200000100100100000100000200000200200,
#BPMCHANGE 133.96
#SCROLL 1
100000100000200000100200100100100000200000100100,
100000200000100000200000100100200200100000200200,
#BPMCHANGE 133.39
100000100000200000200200100000100000200000100100,
#BPMCHANGE 133.98
100000200000100000200000100100200200100000200000,
#BPMCHANGE 135.27
#SCROLL 0.99
000000100000200000100100200000100000200200200000,
#BPMCHANGE 133.37
#SCROLL 1
100000100000200000100100100000100000200000200200,
#BPMCHANGE 133.96
100000100000200000100200100100100000200000100100,
100000100000200000100100100000100000200000200200,
100000100000200000100200100100100000200000100100,
100000200000100000200000100100200200100000200200,
100000100000200000200200100000100000200000100100,
#BPMCHANGE 133.06
#SCROLL 1.01
100000200000100000200000100100200200100000200000,
#BPMCHANGE 134.68
#SCROLL 1
000000100000200000100100100000100000200000000000,
#BPMCHANGE 132.73
#SCROLL 1.01
100000200200100000200000100000200200100000200000,
#BPMCHANGE 134.03
#SCROLL 1
100000200200100000200200100000200200100100200200,
100000200200100000200000100000200200100000200000,
000000100000000000200000000000100000000000500000,
000000000000000000000080000000000000100000200000,
100000100000200000100000000000000000200000000000,
300000200000200000300000000000200200200000300000,
000000200000100000100100200000200200100100100000,
#GOGOSTART
100000100000200000200100100000100000200000100100,
#BPMCHANGE 135.76
#SCROLL 0.99
200000100000200000200100100000100000200000000000,
#BPMCHANGE 133.87
#SCROLL 1
100000100000200000200100100000200000100000200200,
100000100000200000200100100000100000200000000000,
100000200000100100200000100000100000200000200000,
#BPMCHANGE 133.61
100000200000100100200000100100200000100100200000,
#BPMCHANGE 134.24
100000000100200000100000000000100000200000100000,
000000100000200000100100200000200200100100100100,
#BPMCHANGE 133.78
100000100000200000200100100000100000200000100100,
200000100000200000200100100000100000200000000000,
100000100000200000200100100000200000100000200200,
#BPMCHANGE 134.55
100000100000200000200100100000100000200000000000,
#BPMCHANGE 133.01
#SCROLL 1.01
300000200000200000300000000000200200200000300000,
#BPMCHANGE 132.88
000000100000200000100000100000200000100100100100,
#GOGOEND
#BPMCHANGE 133.98
#SCROLL 1
200000000000000000000000000000000000000000000000,
#END
COURSE:Hard
LEVEL:6
SCOREINIT:680
SCOREDIFF:170
#START
#BPMCHANGE 134
100000100000200000100000100000200000100000000000,
200000100000100000200000100000100000200000000000,
100000200000100000100000200000100000100000000000,
100000100000000000200000000000100000400000000000,
100000000000200000100000100000100000200000100000,
000000100000200000100000100000100000200000100100,
100000000000200000100000100000100000200000100000,
000000000000500000000000000000000080000000000000,
100000000000200000100000100000100000200000100000,
000000100000200000100000100000100000200000100100,
100000000000200000100000100000100000200000400000,
000000000000000000000000000000000000000000000000,
400000000000000000000000000000000000000000000000,
100000000000200000100100100000100000200000200000,
100000000000200000100100100000100000200000000000,
100000000000200000100100100000100000200000200000,
100000000000200000100100100000100000200000000000,
100000200000100000200000100000100000100000200200,
200000200000200000200200200000200000200000000000,
100000200000100000200000100000100000200000100000,
000000100000200000000000000000000000000000000000,
100000000000200000100100100000100000200000200000,
100000000000200000100100100000100000200000000000,
100000000000200000100100100000100000200000200000,
100000000000200000100100100000100000200000000000,
100000200000100000200000100000100000100000200200,
200000200000200000200200200000200000200000000000,
100000200000100000200000100000000000200000100000,
000000100000200000200200200000200000200000000000,
100000200000100000000000100000200000100000000000,
100000200000100000000000100000200000100000200000,
100000200000100000000000100000200000100000200000,
000000100000000000100000000000100000000000500000,
000000000000000000000080000000000000100000200000,
100000100000200000100000000000000000200000000000,
300000000000200000300000000000200000200000300000,
000000200000100000100100100000100000200000000000,
#GOGOSTART
100000100000100000100100100000100000100000100100,
100000100000200000100100100000100000200000000000,
100000100000100000100100100000100000100000100100,
100000100000200000100100100000100000200000000000,
100000000000200200200000200000200000200000000000,
100000000000200200200000200200200000200000000000,
100000000100000000100000000000100000000000300000,
000000300000000000600000000000000080000000000000,
100000100000100000100100100000100000100000100100,
100000100000200000100100100000100000200000000000,
100000100000100000100100100000100000100000100100,
100000100000200000100100100000100000200000000000,
300000000000200000300000000000200000200000300000,
000000100000200000100000000000100000100100100000,
#GOGOEND
400000000000000000000000000000000000000000000000,
#END
COURSE:Normal
LEVEL:5
BALLOON:9
SCOREINIT:1200
SCOREDIFF:390
#START
#BPMCHANGE 134
10010000,
20020000,
10010000,
22020000,
10101011,
01000000,
10101022,
,
10101011,
01000000,
10101022,
,
3,
1110,
10110000,
10101011,
,
10101012,
00120000,
10101005,
000000000000000000000000000000000008000000000000,
1110,
10110000,
10101011,
,
10101012,
00120000,
10101011,
,
1111,
10101110,
10101001,
01010105,
000000000000000000000000000008000000100000000000,
10110000,
30030006,
000000000000000000000000000000000008000000000000,
#GOGOSTART
10101001,
0110,
10101001,
0220,
20220000,
20222020,
9,
8,
10101001,
0130,
10101001,
0240,
10110003,
00030000,
#GOGOEND
4,
#END
COURSE:Easy
LEVEL:3
BALLOON:7
SCOREINIT:1000
SCOREDIFF:450
#START
#BPMCHANGE 134
100000000000000000000000000000000000000000000000,
200000000000000000000000000000000000000000000000,
100000000000000000000000000000000000000000000000,
200000000000000000200000000000000000000000000000,
100000000000200000000000000000000000200000000000,
000000000000200000000000000000000000200000000000,
500000000000000000000000000000000000000000000080,
000000000000000000000000000000000000000000000000,
100000000000200000000000000000000000200000000000,
000000000000200000000000000000000000200000000000,
500000000000000000000000000000000000000000000080,
000000000000000000000000000000000000000000000000,
300000000000000000000000000000000000000000000000,
100000000000000000000000100000000000000000000000,
100000000000100000000000000000000000000000000000,
100000000000000000000000100000000000000000100000,
000000000000000000000000000000000000000000000000,
100000000000000000000000100000000000000000200000,
000000000000000000200000000000000000000000000000,
100000000000100000000000100000000000000000500000,
000000000000000000000000000080000000000000000000,
100000000000000000000000100000000000000000000000,
100000000000100000000000000000000000000000000000,
100000000000000000000000100000000000000000100000,
000000000000000000000000000000000000000000000000,
100000000000000000000000100000000000000000200000,
000000000000000000200000000000000000000000000000,
100000000000000000000000100000000000000000100000,
000000000000000000000000000000000000000000000000,
100000000000000000000000100000000000000000000000,
100000000000000000000000100000000000000000000000,
100000000000100000000000100000000000000000500000,
000000000000000000000000000000000000000000000000,
000000000000000000000080000000000000000000000000,
100000000000100000000000000000000000000000000000,
300000000000000000300000000000000000000000600000,
000000000000000000000000000080000000000000000000,
#GOGOSTART
100000000000100000000000100000000000000000000000,
000000000000100000000000100000000000000000000000,
100000000000100000000000100000000000000000000000,
000000000000200000000000200000000000000000000000,
200000000000200000000000000000000000000000000000,
200000000000200000000000200000000000200000000000,
9,
8,
100000000000100000000000100000000000000000000000,
000000000000100000000000100000000000000000000000,
100000000000100000000000100000000000000000000000,
000000000000200000000000200000000000000000000000,
300000000000000000300000000000000000000000300000,
000000000000000000300000000000000000000000000000,
#GOGOEND
400000000000000000000000000000000000000000000000,
#END