Files
ESE-ja-fix/01 Pop/bad guy/bad guy.tja
T
2023-06-15 19:15:39 -05:00

318 lines
10 KiB
Plaintext

//TJADB Project
TITLE:bad guy
TITLEJA:bad guy
SUBTITLE:--Billie Eilish
BPM:135
WAVE:bad guy.ogg
OFFSET:-1.812
DEMOSTART:56.470
COURSE:Oni
LEVEL:7
BALLOON:3,4
SCOREINIT:2550
SCOREDIFF:0
#START
,
10211101,
0010001110201000,
10211101,
0010001110201000,
10211102,
12101020,
1000100010111020,
0011102000112000,
1000100010111020,
0011102000112000,
1000200010111020,
0011102000112000,
1000200010111020,
0022200010002000,
1000100020111020,
0011102000112000,
1000100020111020,
0011102000112000,
1000200020111020,
0011202000112000,
1000200020111020,
0011100000222000,
1001202010111020,
1001202010111020,
1001202010111020,
1000400000002220,
1001202010122020,
1001202010122020,
1001202010122020,
10400011,
5,
000000000008000000000000000000000000400000000000,
#GOGOSTART
3010001120201020,
1010001120201020,
1010001120201020,
1010001120221022,
1020001120221020,
1020001120221020,
1020001220100020,
500000000000000000000008000000000000400000000000,
3010002120212020,
1010002120212020,
1010002120212020,
1022102120212022,
1020102120212020,
1020102120212020,
1020102120212020,
500000000000000000000008000000000000000000000000,
#GOGOEND
,
#BPMCHANGE 120
1001101020103000,
000000200000200000100100200000000000500008000000,
1001101120103000,
0022201120007080,
1001101020103000,
000000100000200000100100200000000000500008000000,
1001201220103000,
000000100000200200100100200000000000700000000008,
#END
COURSE:Hard
LEVEL:6
SCOREINIT:3250
SCOREDIFF:0
#START
000000000000000000000000000000000000000000000000,
100000000000200000100000100000100000000000100000,
000000100000000000100000100000200000100000000000,
100000000000200000100000100000100000000000100000,
000000100000000000100000100000200000100000000000,
100000000000200000100000100000100000000000200000,
100000000000100000000000100000000000200000000000,
100000000000100000000000100000100000000000100000,
000000100000000000100000000000100100100000000000,
100000000000100000000000100000100000000000100000,
000000100000000000100000000000100100100000000000,
100000000000200000000000100000100000000000100000,
000000100000000000100000000000100100100000000000,
100000000000200000000000100000100000000000100000,
000000200200200000000000000000000000200000000000,
100000000000100000000000200000100000000000200000,
000000100000000000200000000000100100100000000000,
100000000000100000000000200000100000000000200000,
000000100000000000200000000000100100100000000000,
100000000000200000000000200000100000000000200000,
000000100000000000200000000000100100100000000000,
100000000000200000000000200000100000000000200000,
000000100100100000000000000000200000200000000000,
100000000000100000000000100000100100100000100000,
100000000000100000000000100000100100100000100000,
100000000000100000000000100000100100100000100000,
100000000000400000000000000000000000100000100000,
200000000000200000000000100000100100100000100000,
200000000000200000000000100000100100100000100000,
200000000000200000000000100000100100100000100000,
200000000000400000000000000000000000100000000000,
500000000000000000000000000000000000000000000000,
000000000008000000000000000000000000400000000000,
#GOGOSTART
300000100000000000100000200000100000100000100000,
100000100000000000100000200000100000100000100000,
100000100000000000100000200000100000100000100000,
100000100000000000100000200000100100100000100000,
100000200000000000100000200000100000100000100000,
100000200000000000100000200000100000100000100000,
100000200000000000100000200000100000000000200000,
500000000000000000000008000000000000400000000000,
300000100000000000200000200000100100100000100000,
100000100000000000200000200000100100100000100000,
100000100000000000200000200000100100100000100000,
100000100000000000200000200000100100100000100000,
100000200000000000200000200000100100100000200000,
100000200000000000200000200000100100100000200000,
100000200000000000100000200000100000000000200000,
500000000000000000000008000000000000000000000000,
#GOGOEND
000000000000000000000000000000000000000000000000,
#BPMCHANGE 120
100000000100100000100000200000000000300000000000,
000000200000200000000000200000000000200000000000,
100000000100100000100000200000000000300000000000,
000000200000200000000000200000000000200000000000,
100000000100100000100000200000000000300000000000,
000000100000200000100000200000000000200000000000,
100000000100100000100000200000000000300000000000,
000000100000200000100000200000000000400000000000,
#END
COURSE:Normal
LEVEL:5
SCOREINIT:4300
SCOREDIFF:0
#START
000000000000000000000000000000000000000000000000,
100000000000000000100000100000100000000000100000,
000000100000000000100000100000000000100000000000,
100000000000000000100000100000100000000000100000,
000000100000000000100000100000000000100000000000,
100000000000000000100000100000100000000000100000,
100000000000100000000000100000000000000000000000,
100000000000100000000000000000100000000000100000,
000000100000000000100000000000100000100000000000,
100000000000100000000000000000100000000000100000,
000000100000000000100000000000100000100000000000,
100000000000200000000000000000100000000000100000,
000000100000000000100000000000100000100000000000,
100000000000200000000000000000100000000000100000,
000000200000200000000000000000000000200000000000,
100000000000100000000000000000100000000000100000,
000000100000000000100000000000100000100000000000,
100000000000100000000000000000100000000000100000,
000000100000000000100000000000100000100000000000,
100000000000200000000000000000100000000000100000,
000000100000000000200000000000100000100000000000,
100000000000200000000000000000100000000000100000,
000000100000100000000000000000200000000000000000,
100000000000200000000000100000100000100000000000,
100000000000200000000000100000100000100000000000,
100000000000200000000000100000100000100000000000,
100000000000400000000000000000000000000000000000,
200000000000200000000000100000100000100000000000,
200000000000200000000000100000100000100000000000,
200000000000200000000000100000100000100000000000,
200000000000400000000000000000000000000000000000,
500000000000000000000000000000000000000000000000,
000000000008000000000000000000000000400000000000,
#GOGOSTART
300000100000000000100000100000000000100000000000,
100000100000000000100000100000000000100000000000,
100000100000000000100000100000000000100000000000,
100000100000000000100000100000000000100000000000,
100000200000000000100000100000000000100000000000,
100000200000000000100000100000000000100000000000,
100000200000000000100000200000000000000000200000,
500000000000000000000008000000000000400000000000,
300000100000000000100000100000100000100000000000,
100000100000000000100000100000100000100000000000,
100000100000000000100000100000100000100000000000,
100000100000000000200000200000000000200000000000,
100000200000000000100000100000100000100000000000,
100000200000000000100000100000100000100000000000,
100000200000000000200000200000200000000000200000,
500000000000000000000008000000000000000000000000,
#GOGOEND
000000000000000000000000000000000000000000000000,
#BPMCHANGE 120
100000000000100000100000200000000000300000000000,
000000000000200000000000200000000000200000000000,
100000000000100000100000200000000000300000000000,
000000000000200000000000200000000000200000000000,
100000000000100000100000200000000000300000000000,
000000000000200000000000200000000000200000000000,
100000000000100000100000200000000000300000000000,
000000000000200000000000200000000000400000000000,
#END
COURSE:Easy
LEVEL:3
SCOREINIT:7620
SCOREDIFF:0
#START
000000000000000000000000000000000000000000000000,
100000000000000000000000100000000000000000000000,
000000000000000000000000100000000000000000000000,
100000000000000000000000100000000000000000000000,
000000000000000000000000100000000000000000000000,
100000000000000000000000100000000000000000000000,
100000000000100000000000100000000000000000000000,
100000000000100000000000000000100000000000100000,
000000000000000000100000000000000000000000000000,
100000000000100000000000000000100000000000100000,
000000000000000000100000000000000000000000000000,
100000000000100000000000000000100000000000100000,
000000000000000000200000000000000000000000000000,
100000000000100000000000000000100000000000100000,
000000000000200000000000000000000000000000000000,
100000000000100000000000000000100000000000100000,
000000000000000000100000000000000000000000000000,
100000000000100000000000000000100000000000100000,
000000000000000000100000000000000000000000000000,
100000000000100000000000000000100000000000100000,
000000000000000000200000000000000000000000000000,
100000000000100000000000000000100000000000100000,
000000000000100000000000000000000000000000000000,
100000000000000000000000100000000000000000000000,
100000000000100000000000100000000000000000000000,
100000000000000000000000100000000000000000000000,
100000000000400000000000000000000000000000000000,
200000000000000000000000100000000000000000000000,
200000000000200000000000200000000000000000000000,
200000000000000000000000100000000000000000000000,
200000000000400000000000000000000000000000000000,
500000000000000000000000000000000000000000000000,
000000000008000000000000000000000000400000000000,
#GOGOSTART
300000000000000000000000100000000000100000000000,
100000000000000000000000100000000000100000000000,
100000000000000000000000100000000000100000000000,
100000000000000000000000100000000000100000000000,
100000000000000000000000100000000000100000000000,
100000000000000000000000100000000000100000000000,
100000000000000000000000200000000000000000000000,
500000000000000000000008000000000000400000000000,
300000000000000000000000100000000000100000000000,
100000000000000000000000100000000000100000000000,
100000000000000000000000100000000000100000000000,
100000000000000000000000200000000000200000000000,
100000000000000000000000100000000000100000000000,
100000000000000000000000100000000000100000000000,
100000000000000000000000200000000000000000000000,
500000000000000000000008000000000000000000000000,
#GOGOEND
000000000000000000000000000000000000000000000000,
#BPMCHANGE 120
100000000000000000000000200000000000300000000000,
000000000000000000000000200000000000200000000000,
100000000000000000000000200000000000300000000000,
000000000000000000000000200000000000200000000000,
100000000000000000000000200000000000300000000000,
000000000000000000000000200000000000200000000000,
100000000000000000000000200000000000300000000000,
000000000000000000000000200000000000400000000000,
#END