Files
ESE-ja-fix/01 Pop/believe in you/believe in you.tja
T
2023-01-17 00:45:18 -05:00

252 lines
9.3 KiB
Plaintext

//TJADB Project
TITLE:believe in you
TITLEJA:believe in you
SUBTITLE:--Do As Infinity/Tales of Asteria
SUBTITLEJA:「テイルズ オブ アスタリア」テーマソング
BPM:127
WAVE:believe in you.ogg
OFFSET:-2.106
DEMOSTART:52.391
COURSE:Oni
LEVEL:7
BALLOON:27
SCOREINIT:970
SCOREDIFF:230
#START
000000000000000000000000000000000000000000000000,
000000000000000000000000000000000000000000000000,
100000100000200000000000100000200000100000200000,
100000100000200000000000200000100000200000200000,
100000100000200000000000100000200000100000200000,
100000100000200000000000200000200200200200200000,
100000100000200000000000100000200000100000200000,
100000100000200000000000200000100000200000200000,
100000100000200000000000100000200000100000200000,
100000100000200000000000200000100000200200200000,
700000000000000000000000000000000000000000000000,
000000000000800000000000300000300000300000300000,
400000000000200000000000100000100000200000100000,
000000100000200000000000100000100000200000200000,
000000100000200000000000100000100000200000100000,
000000100000200000000000100000100000200000200000,
000000100000200000000000100000100100100100100100,
100000100000200000200000100000200200100000200000,
100000100000200000100000200000100100200000200000,
100000100000200000200000100000200200100000200000,
100000100000200000100000200000200200100100200000,
100000100000200000200000100000200200100000200000,
100000100000200000100000200000100100200000200000,
100000100000200000200000100000200200100000200000,
100000100000200000100000200000100000200200200000,
500000000000000000000000000000000000000008000000,
100000100000200000200000100100100100100100100100,
200000000000200000200200100000100000200000100000,
000000100000200000200200100000100000200000100000,
000000100000200000200200100000100000200000100000,
000000100000200000200200100000200200100100200000,
000000100000100000200200100000200000100000200000,
000000200000200000100100200000100000200000100000,
000000100000500000000000000000000008000000400000,
000000000000100000100000100200000200100100100100,
#GOGOSTART
100000200000100000200100100000200000100000200000,
100000200000100000200000100100200000100000200000,
100000200000100000200100100000200000100000200000,
100000200000100000200000100100200000100000200200,
100000200000100000200100100000200000100000200000,
100000200000100000200000100100200000100000200000,
100100200000100100200000100000200100100000100000,
400000000000300000300000000000400000400000000000,
#GOGOEND
#END
COURSE:Hard
LEVEL:6
BALLOON:24
SCOREINIT:940
SCOREDIFF:240
#START
000000000000000000000000000000000000000000000000,
000000000000000000000000000000000000000000000000,
100000100000200000000000100000200000100000000000,
100000100000200000000000200000100000200000000000,
100000100000200000000000100000200000100000000000,
100000100000200000000000200000200200200000000000,
100000100000200000000000100000200000100000000000,
100000100000200000000000200000100000200000000000,
100000100000200000000000100000200000100000000000,
100000100000200000000000000000000000700000000000,
000000000000000000000000000000000000000000000000,
000000000800000000000000300000300000300000300000,
400000000000200000000000100000100000000000100000,
000000100000200000000000100000100000000000200000,
000000100000200000000000100000100000000000100000,
000000100000200000000000100000100000000000200000,
000000100000200000000000100000100100100000000000,
100000100000200000200000100000200000100000200000,
100000100000200000100000200000100000200000000000,
100000100000200000200000100000200000100000200000,
100000100000200000100000200000200200200000000000,
100000100000200000200000100000200000100000200000,
100000100000200000100000200000100000200000000000,
100000100000200000200000100000200000100000200000,
100000100000200000000000000000000000500000000000,
500000000000000000000000000000000000000080000000,
600000000000000000000080000000100000200000100000,
000000100000200000200000100000100000200000100000,
000000100000200000200000100000100000200000100000,
000000100000200000200000100000100000200000100000,
000000100000200000200000100000100000200000100000,
000000100000100000200000100000200000000000200000,
000000200000200000100000200000100000000000100000,
000000100000500000000000000000000080000000400000,
000000000000300000000000300000300000300000300000,
#GOGOSTART
100000000000100000200000100000200000100000200000,
100000100000200000200000100000100000200000200000,
100000200000100000200000100000200000100000200000,
100000100000200000200000100000100000200000200000,
100000000000100000200000100000200000100000200000,
100000100000200000200000100000100000200000200000,
100100100000200200200000100000100000200000100000,
400000000000300000300000000000400000400000000000,
#GOGOEND
#END
COURSE:Normal
LEVEL:5
BALLOON:16,13
SCOREINIT:1190
SCOREDIFF:350
#START
000000000000000000000000000000000000000000000000,
000000000000000000000000000000000000000000000000,
100000000000100000000000100000100000100000000000,
100000000000100000000000200000200000200000000000,
100000000000100000000000100000100000100000000000,
100000000000100000000000200000000000000000000000,
100000000000100000000000100000100000100000000000,
100000000000100000000000200000200000200000000000,
100000000000100000000000100000100000100000000000,
100000000000100000000000000000000000700000000000,
000000000000000000000000000000000000000000000000,
000000000000000800000000000000000000000000000000,
400000000000000000000000100000100000000000100000,
000000000000200000000000100000100000000000200000,
000000000000000000000000100000100000000000100000,
000000000000200000000000100000100000000000200000,
000000000000000000000000000000000000000000000000,
100000100000100000000000100000100000100000000000,
100000100000100000000000200000200000200000000000,
100000100000100000000000100000100000100000000000,
100000100000100000000000000000000000000000000000,
100000100000100000000000100000100000100000000000,
100000100000100000000000200000200000200000000000,
100000100000100000000000100000100000100000000000,
100000100000100000000000000000000000500000000000,
000000000000000000000000000000000000000080000000,
600000000000000000000080000000700000000000000000,
000000000000000000000000000000000000000800000000,
000000000000000000000000000000000000000000000000,
000000000000200000000000000000000000200000100000,
000000000000200000000000000000000000200000100000,
000000100000100000100000100000100000000000000000,
000000200000200000200000200000200000000000500000,
000000000000000000000000000000000080000000400000,
000000000000300000000000300000000000300000000000,
#GOGOSTART
100000000000200000000000100000100000200000000000,
100000000000100000000000200000200000200000000000,
100000000000200000000000100000100000200000000000,
100000000000100000000000200000200000200000000000,
100000000000200000000000100000100000200000000000,
100000000000100000000000200000200000200000000000,
100000100000200000200000100000100000000000500000,
000000000000000000000000000080000000000000000000,
#GOGOEND
#END
COURSE:Easy
LEVEL:4
BALLOON:11
SCOREINIT:1030
SCOREDIFF:360
#START
000000000000000000000000000000000000000000000000,
000000000000000000000000000000000000000000000000,
100000000000100000000000100000000000000000000000,
100000000000100000000000200000000000000000000000,
100000000000100000000000100000000000000000000000,
100000000000100000000000200000000000000000000000,
100000000000100000000000100000000000000000000000,
100000000000100000000000200000000000000000000000,
100000000000100000000000100000000000000000000000,
100000000000100000000000000000000000500000000000,
000000000000000000000000000000000000000080000000,
600000000000000000000080000000000000000000000000,
400000000000000000000000100000100000000000100000,
000000000000000000000000200000200000000000200000,
000000000000000000000000100000100000000000100000,
000000000000000000000000200000200000000000200000,
000000000000000000000000000000000000000000000000,
100000000000100000000000100000000000100000000000,
100000000000100000000000200000000000000000000000,
100000000000100000000000100000000000100000000000,
100000000000100000000000000000000000000000000000,
100000000000100000000000100000000000100000000000,
100000000000100000000000200000000000000000000000,
100000000000100000000000100000000000100000000000,
100000000000100000000000000000000000500000000000,
000000000000000000000000000000000000000080000000,
600000000000000000000080000000700000000000000000,
000000000000000000000000000000000000000800000000,
000000000000000000000000000000000000000000000000,
000000000000200000000000000000000000200000000000,
000000000000200000000000000000000000200000000000,
000000100000100000000000100000000000000000000000,
000000200000200000000000200000000000000000500000,
000000000000000000000000000000000000000080000000,
000000000000300000000000300000000000300000000000,
#GOGOSTART
100000000000200000000000100000000000200000000000,
100000000000100000000000200000000000200000000000,
100000000000200000000000100000000000200000000000,
100000000000100000000000200000000000200000000000,
100000000000200000000000100000000000200000000000,
100000000000100000000000200000000000200000000000,
100000000000200000000000100000100000000000500000,
000000000000000000000000000080000000000000000000,
#GOGOEND
#END