Files
ESE-ja-fix/02 Anime/ADAMAS/ADAMAS.tja
T
2023-06-15 19:15:39 -05:00

385 lines
4.0 KiB
Plaintext

//TJADB Project
TITLE:ADAMAS
TITLEJA:ADAMAS
SUBTITLE:--LiSA/Sword Art Online Alicization
SUBTITLEJA:「ソードアート・オンライン アリシゼーション」より
BPM:191
WAVE:ADAMAS.ogg
OFFSET:-1.779
DEMOSTART:55.548
BGMOVIE:ADAMAS.mp4
COURSE:Oni
LEVEL:8
SCOREINIT:650
SCOREDIFF:180
#START
,
,
0000000//3
#GOGOSTART
3,
0010200011102000,
1110200011102010,
0010200011102000,
1110200011112010,
0010200011102000,
1110200011112210,
01201020,
1111201110202030,//11
#GOGOEND
01202020,
2000201020112010,
2222,
2000201020112010,
2222,
2000201020112010,
2000201120112020,
02020221,
0010200011102010,
1210201022102010,
0010200011102010,
1210201011202010,
0010200011102010,
1210201022102000,
1110200012102000,
1110200012102000,
10202222,
1000200020201022,
10202222,
1000201022102022,
10202222,
1000200020201022,
10202222,
1022102210221222,
1010201110102012,
1010201110102012,
1010201110102012,
1010201110102012,
1002201000102020,
1002201000102020,
3022203022203030,
0000000//43
#GOGOSTART
3,
01201120,
1110202210102000,
1110201110102022,
1011202210112022,
10201120,
1110202210102030,
03030303,
04040404,//51
#GOGOEND
02202020,
1000200020102011,
1222,
1110221011102210,
20230230,
23023330,
1110221011102210,
11102211202020//59
#GOGOSTART
60,
,
000000000008000000000000300000000000000000600000,
,
000000000008000000000000300000000000000000600000,
,
000000000008000000000000400000000000000000300000,
0010200011102012,
1010200011102012,
1011201120112012,//68
#GOGOEND
1022222020100030,
#END
COURSE:Hard
LEVEL:4
SCOREINIT:620
SCOREDIFF:180
#START
,
,
0000000//3
#GOGOSTART
3,
01201020,
10201203,
01201020,
10201203,
01201020,
10201203,
01201020,
10202223,//11
#GOGOEND
01202020,
20202022,
1222,
20202022,
1222,
20202022,
10202102,
02020221,
01201120,
11221020,
10201120,
11221020,
10201120,
11221020,
1112,
1112,
12,
22,
12,
22,
12,
22,
12,
2222,
10201120,
11201120,
10201120,
11201120,
10021020,
10021020,
30030033,
0000000//43
#GOGOSTART
3,
01201120,
10201120,
10201120,
11221020,
10201120,
10201123,
03030303,
04040404,//51
#GOGOEND
0222,
0222,
0222,
0222,
30404033,
03333040,
30404033,
0303444//59
#GOGOSTART
6,
,
000000000008000000000000300000000000000000600000,
,
000000000008000000000000300000000000000000600000,
,
000000000008000000000000400000000000000000300000,
01201020,
10201123,
01201020,//68
#GOGOEND
10002003,
,
#END
COURSE:Normal
LEVEL:4
BALLOON:12,16
#START
,
,
0000000//3
#GOGOSTART
3,
0111,
10102203,
0111,
10102203,
0111,
10102203,
0220,
20202203,//11
#GOGOEND
,
,
1,
,
1,
,
1,
00000001,
0202,
1202,
1202,
1202,
1202,
1202,
1112,
1112,
11,
12,
1,
,
11,
12,
1,
2222,
12,
1120,
12,
1120,
7,
0008,
500000000000000000000000000000000000000000000008,
0000000//43
#GOGOSTART
3,
0111,
1,
1120,
1120,
1122,
10000007,
,
00000008,//51
#GOGOEND
02,
02,
02,
02,
00303003,
03003030,
00303003,
0300000//59
#GOGOSTART
6,
,
000008000000000000000000300000000000000000600000,
,
000008000000000000000000300000000000000000600000,
,
000008000000000000000000400000000000000000300000,
0112,
10102203,
0112,//68
#GOGOEND
10002003,
,
#END
COURSE:Easy
LEVEL:4
BALLOON:9,13
#START
,
,
0000000//3
#GOGOSTART
3,
0110,
10100003,
0110,
10100003,
0110,
10100003,
0220,
20200003,//11
#GOGOEND
,
,
1,
,
1,
,
1,
00000001,
0202,
0202,
1202,
0202,
1202,
0202,
1110,
1110,
11,
2,
1,
,
11,
2,
1,
,
11,
1,
11,
1,
7,
0008,
500000000000000000000000000000000000000000000008,
0000000//43
#GOGOSTART
3,
0111,
1,
1110,
1110,
1111,
10000007,
,
00000008,//51
#GOGOEND
02,
02,
02,
02,
00303003,
03003030,
00303003,
0300000//59
#GOGOSTART
6,
,
000008000000000000000000300000000000000000600000,
,
000008000000000000000000300000000000000000600000,
,
000008000000000000000000400000000000000000300000,
0110,
10100003,
0110,//68
#GOGOEND
10000003,
,
#END