Files
ESE-ja-fix/02 Anime/Bataille Decisive/Bataille Decisive.tja
T
2023-06-15 19:05:10 -05:00

533 lines
8.0 KiB
Plaintext
Raw Blame History

This file contains ambiguous Unicode characters
This file contains Unicode characters that might be confused with other characters. If you think that this is intentional, you can safely ignore this warning. Use the Escape button to reveal them.
//TJADB Project
TITLE:Bataille Décisive
TITLEJA:Bataille Décisive
SUBTITLE:--Shiro Sagisu/Evangelion: 1.0 You Are (Not) Alone
SUBTITLEJA:「ヱヴァンゲリヲン新劇場版:序」より
BPM:150
WAVE:Bataille Decisive.ogg
OFFSET:-1.717
DEMOSTART:12.917
COURSE:Oni
LEVEL:7
BALLOON:7,7,7,7,10
SCOREINIT:480
SCOREDIFF:120
#START
,
,
,
10010010,
01003030,
10010010,
01004000,
12212212,
21223030,
12212212,
200000100000200000500000000000000000000008000000,
12212212,
21223030,
12212212,
200000100000200000500000000000000000000008000000,
1022201022201022,
2010222010221000,
1022201022201022,
200000100000200000500000000000000000000008000000,
1022201022201022,
2010222010112022,
500000000008000000500000000008000000500000000008,
000000500008000000700000000000000000000000800000,
#SECTION
#BRANCHSTART p,80,80
#N
1022201022201022,
2010222010112022,
500000000008000000500000000008000000500000000008,
000000500008000000700000000000000000000000800000,
1022201022201022,
2010222010112022,
500000000008000000500000000008000000500000000008,
000000500008000000700000000000000000000000800000,
#E
1022201022201022,
2010222010112022,
500000000008000000500000000008000000500000000008,
000000500008000000700000000000000000000000800000,
1022201022201022,
2010222010112022,
500000000008000000500000000008000000500000000008,
000000500008000000700000000000000000000000800000,
#M
1021201021201021,
2010212010112022,
500000000008000000500000000008000000500000000008,
000000500008000000700000000000000000000000800000,
1021201021201021,
2010212010112022,
500000000008000000500000000008000000500000000008,
000000500008000000700000000000000000000000800000,
#SECTION
#BRANCHSTART p,80,80
#N
#GOGOSTART
1000101120001110,
2000102011201020,
0000102000101110,
2000102011202030,
0000101120001110,
2000102011201020,
0000102000101110,
000000300000000300000000400000004000000040000000,
#E
#GOGOSTART
1000101120001110,
2000102011201020,
0000102000101110,
2000102011202030,
0000101120001110,
2000102011201020,
0000102000101110,
000000300000000300000000400000004000000040000000,
#M
#GOGOSTART
1110101120101110,
2022102011201020,
0010102220101110,
2022102011202030,
0010101120101110,
2022102011201020,
0010102220101110,
000000300000000300000000400000004000000040000000,
#SECTION
#BRANCHSTART p,80,80
#N
1000101120001110,
2000102011201020,
0000102000101110,
2000102011202030,
0000101120001110,
2000102011201020,
0000102000101110,
000000300000000300000000400000004000000040000000,
#E
1000101120001110,
2000102011201020,
0000102000101110,
2000102011202030,
0000101120001110,
2000102011201020,
0000102000101110,
000000300000000300000000400000004000000040000000,
#M
1110101120101110,
2022102011201020,
0010102220101110,
2022102011202030,
0010101120101110,
2022102011201020,
0010102220101110,
000000300000000300000000400000004000000040000000,
#SECTION
#BRANCHSTART p,80,80
#N
#GOGOEND
1022201022201022,
2010222010112022,
500000000008000000500000000008000000500000000008,
000000500008000000700000000000000000000000800000,
1022201022201022,
2010222010112022,
500000000008000000500000000008000000500000000008,
07000008,
#E
#GOGOEND
1022201022201022,
2010222010112022,
500000000008000000500000000008000000500000000008,
000000500008000000700000000000000000000000800000,
1022201022201022,
2010222010112022,
500000000008000000500000000008000000500000000008,
07000008,
#M
#GOGOEND
1021201021201021,
2010212010112022,
500000000008000000500000000008000000500000000008,
000000500008000000700000000000000000000000800000,
1021201021201021,
2010212010112022,
500000000008000000500000000008000000500000000008,
07000008,
#SECTION
#BRANCHSTART p,80,80
#N
#GOGOSTART
1000101120001110,
2000102011201020,
0000102000102210,
2000102011202030,
0020200020200022,
2000222011201000,
0020200020200022,
2000222011201000,
#E
#GOGOSTART
1000101120001110,
2000102011201020,
0000102000102210,
2000102011202030,
0020200020200022,
2000222011201000,
0020200020200022,
2000222011201000,
#M
#GOGOSTART
1110101120101110,
2022102011201020,
0010102220101110,
2022102011202030,
0021201021201021,
2010212011201000,
1021201021201021,
2010212011201120,
#SECTION
#BRANCHSTART p,80,80
#N
1000101120001110,
2000102011201020,
0000102000102210,
2000102011202030,
0020200020200022,
2000222011201000,
0020200020200022,
2000222011201000,
#E
1000101120001110,
2000102011201020,
0000102000102210,
2000102011202030,
0020200020200022,
2000222011201000,
0020200020200022,
2000222011201000,
#M
1110101120101110,
2022102011201020,
0010102220101110,
2022102011202030,
0021201021201021,
2010212011201000,
1021201021201021,
2010212011201120,
#BRANCHEND
#GOGOEND
3,
#END
COURSE:Hard
LEVEL:5
BALLOON:6,6,6,34,34,6,10,34
#START
,
,
,
10010010,
01003030,
10010010,
01004000,
12012012,
01203030,
12012012,
000000100000200000500000000000000000000008000000,
12012012,
01203030,
12012012,
000000100000200000500000000000000000000008000000,
12212212,
21223030,
12212212,
200000100000200000500000000000000000000008000000,
12212212,
21223030,
500000000008000000500000000008000000500000000008,
000000500008000000700000000000000000000000800000,
12212212,
21223030,
500000000008000000500000000008000000500000000008,
000000500008000000700000000000000000000000800000,
12212212,
21223030,
500000000008000000500000000008000000500000000008,
000000500008000000700000000000000000000000800000,
#GOGOSTART
10102011,
20120102,
00010201,
20120207,
,
,
8,
,
10102011,
20120102,
00010201,
20120207,
,
,
8,
,
#GOGOEND
12212212,
2010202010111000,
500000000008000000500000000008000000500000000008,
000000500008000000700000000000000000000000800000,
12212212,
2010202010111000,
500000000008000000500000000008000000500000000008,
07000008,
#GOGOSTART
10102011,
20120102,
00010201,
20120107,
,
,
8,
,
10102011,
20120102,
00010201,
20120103,
02212212,
21223030,
12212212,
21223030,
#GOGOEND
3,
#END
COURSE:Normal
LEVEL:3
BALLOON:20,20,6,20,20
#START
,
,
,
10010010,
01003030,
10010010,
01004000,
10010010,
01003030,
10010010,
01004040,
10010010,
01003030,
10010010,
01004040,
10010010,
01003030,
10010010,
01004040,
10010010,
01003030,
500000000008000000500000000008000000500000000008,
000000500000000008000000000000000000000000000000,
10010010,
01003030,
500000000008000000500000000008000000500000000008,
000000500000000008000000000000000000000000000000,
10010010,
01003030,
500000000008000000500000000008000000500000000008,
000000500000000008000000000000000000000000000000,
#GOGOSTART
1110,
20200202,
00010100,
20200207,
,
,
8,
,
1110,
20200202,
00010100,
20200207,
,
,
8,
,
#GOGOEND
10010010,
01003030,
02202202,
200000000000000000500000000000000008000000000000,
10010010,
01003030,
02202202,
27000008,
#GOGOSTART
1110,
20200202,
00010100,
20200207,
,
,
8,
,
1110,
20200202,
00010100,
20200207,
,
,
8,
,
#GOGOEND
3
#END
COURSE:Easy
LEVEL:3
BALLOON:17,17,17,17
#START
,
,
,
1,
03,
1,
04,
1001,
03,
1001,
04,
1001,
03,
1001,
04,
10010010,
03,
10010010,
04,
10010010,
03,
500000000008000000500000000008000000500000000008,
000000500000000008000000000000000000000000000000,
10010010,
01003000,
500000000008000000500000000008000000500000000008,
000000500000000008000000000000000000000000000000,
10010010,
01003000,
500000000008000000500000000008000000500000000008,
000000500000000008000000000000000000000000000000,
#GOGOSTART
1110,
2,
10010000,
20000007,
,
,
8,
,
1110,
2,
10010000,
20000007,
,
,
8,
,
#GOGOEND
10010010,
01003000,
500000000008000000500000000008000000500000000008,
000000500000000008000000000000000000000000000000,
10010010,
01003000,
500000000008000000500000000008000000500000000008,
000000500000000008000000000000000000000000000000,
#GOGOSTART
1110,
2,
10010100,
20000007,
,
,
8,
,
1110,
2,
10010100,
20000007,
,
,
8,
,
#GOGOEND
3,
#END