Files
ESE-ja-fix/02 Anime/CHU-BURA/CHU-BURA.tja
T
2023-01-17 00:45:18 -05:00

351 lines
14 KiB
Plaintext

//TJADB Project
TITLE:CHU-BURA
TITLEJA:CHU-BURA
SUBTITLE:--KELUN/BLEACH
SUBTITLEJA:「BLEACH」主題曲
BPM:180
WAVE:CHU-BURA.ogg
OFFSET:-1.492
DEMOSTART:41.325
BGMOVIE:CHU-BURA.mp4
COURSE:Oni
LEVEL:7
BALLOON:25
SCOREINIT:600
SCOREDIFF:140
#START
100000000000100000000000100000100000200000100000,
000000100000000000100000000000200000100000000000,
100000000000100000000000100000100000200000100000,
000000100000000000300000000000300000000000100100,
100000000000200000000000100000100000200000100000,
000000100000200000100000100000100000200000100100,
100000000000200000000000100000100000200000100000,
000000100000200000100100100000100100100000100000,
100000100000200000100000100000000000200000100000,
000000100000200000000000100000100000100000000000,
100000100000200000100000100000000000200000100000,
000000100000200000000000100000100000200000000000,
100000100000200000100000100000000000200000100000,
000000100000200000000000100000100000100000000000,
100000100000200000100000100000000000200000100000,
000000100000200000000000100000200200200000000000,
100000100000200000100000200000000000200000100000,
000000100000200000000000100000100000200000100000,
100000100000200000100000200000000000200000100000,
000000100000200000000000100000100000200000000000,
100000100000200000100000200000000000200000100000,
000000100000200000000000100000100000200000100000,
100000100000200000100000200000000000200000100000,
000000100000200000000000100100100000200200200000,
100000000000200000000000100000100000200000100000,
100000100000200000100100100000100000200000100000,
100000000000200000000000100000100000200000100000,
100000100000200000100100100000100000200000100000,
100000100000200000100100100000100000200000100100,
100000100000200000100100100000100000200000100000,
700000000000000000000000000000000000000000000000,
000000000000000000000000000000000000800000000000,
#GOGOSTART
100000100000200000000000100000100000200000000000,
100000100000200000100100100000100000200000100000,
000000100000200000000000100000100000200000000000,
100000100000200000000000100100100000200000100000,
000000100000200000000000300000300000300000300000,
000000100000200000000000300000300000300000300000,
000000100000200000000000300000300000300000300000,
000000100000200000100000200000100100100000100100,
100000100000200000000000100000100000200000000000,
100000100000200000100100100000100000200000100000,
000000100000200000000000100000100000200000000000,
100000100000200000000000100100100000200000100000,
000000100000200000000000300000300000300000300000,
000000100000200000000000300000300000300000300000,
000000100000200000000000300000300000300000300000,
000000100000200000100000200000100000200000100000,
000000200000100000200000000000100000200000100000,
000000200000100000200000000000100000200000100000,
000000200000100000200000200000100000200000100000,
100000200000100000200000200000100000200000300000,
000000000000300000000000400000000000000000300000,
000000000000300000000000400000000000000000100000,
000000100000200000100000100000200000100000100000,
100100100000100100100000100100100000300000000000,
100000100000200000000000100000100000200000100000,
100000100000200000100100100000100000200000100000,
000000100000200000100100100000100000200000100100,
100000100000200000100100100000100000200000100000,
000000100000200000000000300000300000300000300000,
000000100000200000000000300000300000300000300000,
000000100000200000000000100000100000200000100000,
000000100000200000100000000000100000200000100000,
200000100000200000100000200000100000100000100100,
100000100100100000400000000000400000000000400000,
300000000000000000000000000000000000000000000000,
#GOGOEND
#END
COURSE:Hard
LEVEL:5
BALLOON:20
SCOREINIT:730
SCOREDIFF:170
#START
100000000000100000000000100000000000000000100000,
000000000000000000100000000000100000100000000000,
100000000000100000000000100000000000000000100000,
000000000000000000300000000000300000000000100000,
100000000000200000000000100000000000100000100000,
000000100000200000000000100000100000100000000000,
100000000000200000000000100000000000100000100000,
000000100000200000100000000000100000000000000000,
100000100000000000200000200000000000100000100000,
000000100000200000000000100000100000100000000000,
100000100000000000200000200000000000100000100000,
000000100000200000000000100000000000100000000000,
100000100000000000200000200000000000100000100000,
000000100000200000000000100000100000100000000000,
100000100000000000200000200000000000100000100000,
000000100000200000000000100000000000000000000000,
100000100000200000000000100000000000100000100000,
000000100000200000000000100000100000100000000000,
100000100000200000000000100000000000100000100000,
000000100000200000000000100000100000100000000000,
100000100000200000000000100000000000100000100000,
000000100000200000000000100000100000100000000000,
100000100000200000000000100000000000100000100000,
000000100000200000000000100000100000200000200000,
100000000000200000000000000000100000200000000000,
100000000000200000000000000000100000200000200000,
100000000000200000000000000000100000200000000000,
100000000000200000000000100000100000200000000000,
100000000000200000000000000000100000200000000000,
100000000000200000000000100000200000200000100000,
700000000000000000000000000000000000000000000000,
000000000000000000000000000000000800000000000000,
#GOGOSTART
100000000000000000000000100000100000200000000000,
100000000000200000100000100000100000000000500000,
000000000000000000000000000000000800000000000000,
100000000000200000100000100000000000200000100000,
000000100000200000000000100000100000000000100000,
000000100000200000000000100000100000000000100000,
000000100000200000000000100000100000000000100000,
000000100000200000100000100000000000200000000000,
100000000000000000000000100000100000200000000000,
100000000000200000100000100000100000000000500000,
000000000000000000000000000000000800000000000000,
100000000000200000100000100000000000200000100000,
000000100000200000000000100000100000000000100000,
000000100000200000000000100000100000000000100000,
000000100000200000000000100000100000000000100000,
100000100000000000100000000000000000000000100000,
000000000000200000000000200000000000200000000000,
200000100000200000000000200000100000200000000000,
200000000000200000000000200000000000200000000000,
200000100000200000000000200000100000200000100000,
000000000000100000000000300000000000000000100000,
000000000000100000000000300000000000000000100000,
000000000000100000000000100000100000000000100000,
000000300000000000300000000000300000000000300000,
300000000000000000000000100000100000200000000000,
100000000000200000100000100000100000000000500000,
000000000000000000000000000000000800000000000000,
100000000000200000100000100000000000200000100000,
000000100000200000000000100000100000000000100000,
000000100000200000000000100000100000000000100000,
000000100000200000000000100000100000000000100000,
000000100000200000100000000000100000000000100000,
100000000000200000100000100000100000000000100000,
000000100000200000100000000000100000000000100000,
300000000000000000000000000000000000000000000000,
#GOGOEND
#END
COURSE:Normal
LEVEL:5
BALLOON:13
SCOREINIT:1250
SCOREDIFF:350
#START
300000000000000000000000000000000000200000000000,
000000000000200000000000000000000000200000000000,
100000000000200000000000000000000000200000000000,
000000000000000000000000000000000000000000000000,
100000000000200000000000200000000000000000100000,
000000000000000000000000000000000000000000000000,
100000000000200000000000200000000000000000100000,
000000000000000000000000000000000000000000000000,
100000000000000000000000100000000000100000100000,
000000000000000000000000000000000000000000000000,
100000000000000000000000100000000000100000100000,
000000000000000000000000000000000000000000000000,
100000000000000000000000100000000000100000100000,
000000000000000000000000000000000000000000000000,
100000000000000000000000100000000000100000100000,
000000000000000000000000000000000000000000000000,
100000000000100000000000200000000000100000000000,
000000000000100000000000200000000000100000000000,
100000000000100000000000200000000000100000000000,
000000000000100000000000200000000000100000000000,
100000000000100000000000200000000000100000000000,
000000000000100000000000200000000000100000000000,
100000000000100000000000200000000000100000000000,
000000000000100000000000100000100000100000000000,
100000000000000000000000000000000000100000000000,
100000000000200000000000100000000000100000000000,
100000000000000000000000000000000000100000000000,
100000000000200000000000100000000000100000000000,
100000000000000000000000000000000000100000000000,
100000000000200000000000100000100000100000000000,
700000000000000000000000000000000000000000000000,
000000000000000000000000000000800000000000000000,
#GOGOSTART
100000000000000000000000100000100000100000000000,
100000000000000000000000200000000000000000500000,
000000000000000000000000000000800000000000000000,
100000000000000000000000200000000000000000500000,
000000000000000000800000000000000000000000100000,
000000000000100000000000000000000000000000100000,
000000000000100000000000000000000000000000100000,
000000000000100000000000000000000000000000000000,
100000000000000000000000100000100000100000000000,
100000000000000000000000200000000000000000500000,
000000000000000000000000000000800000000000000000,
100000000000000000000000200000000000000000500000,
000000000000000000800000000000000000000000100000,
000000000000100000000000000000000000000000100000,
000000000000100000000000000000000000000000000000,
500000000000000000000000000000000000000000800000,
000000000000200000000000000000000000200000000000,
000000000000200000000000000000000000200000000000,
000000000000200000000000000000000000200000000000,
000000000000200000000000000000000000000000100000,
000000000000100000000000000000000000000000100000,
000000000000100000000000000000000000000000100000,
000000000000100000000000200000000000000000000000,
100000000000000000000000000000000000000000000000,
300000000000000000000000100000100000100000000000,
100000000000000000000000200000000000000000500000,
000000000000000000000000000000800000000000000000,
100000000000000000000000200000000000000000500000,
000000000000000000800000000000000000000000100000,
000000000000100000000000000000000000000000100000,
000000000000100000000000100000100000000000100000,
000000000000000000300000000000300000000000500000,
000000000000000000000000000000800000000000000000,
000000000000000000100000000000100000000000000000,
300000000000000000000000000000000000000000000000,
#GOGOEND
#END
COURSE:Easy
LEVEL:4
BALLOON:8
SCOREINIT:940
SCOREDIFF:350
#START
300000000000000000000000000000000000000000000000,
100000000000000000000000000000000000000000000000,
300000000000000000000000000000000000000000000000,
100000000000000000000000000000000000000000000000,
100000000000000000000000100000000000000000000000,
100000000000000000000000000000000000000000000000,
100000000000000000000000100000000000000000000000,
100000000000000000000000000000000000000000000000,
100000000000000000000000000000000000100000000000,
000000000000000000000000000000000000000000000000,
100000000000000000000000000000000000100000000000,
000000000000000000000000000000000000000000000000,
100000000000000000000000000000000000100000000000,
000000000000000000000000000000000000000000000000,
100000000000000000000000000000000000100000000000,
000000000000000000000000000000000000000000000000,
100000000000000000000000000000000000100000000000,
100000000000000000000000000000000000000000000000,
100000000000000000000000000000000000100000000000,
100000000000000000000000000000000000000000000000,
100000000000000000000000000000000000100000000000,
100000000000000000000000000000000000000000000000,
100000000000000000000000100000000000000000000000,
100000000000000000000000100000000000000000000000,
300000000000000000000000000000000000000000000000,
100000000000000000000000000000000000000000000000,
100000000000000000000000100000000000000000000000,
100000000000000000000000100000000000000000000000,
100000000000100000000000100000000000000000000000,
100000000000100000000000100000000000000000000000,
700000000000000000000000000000000000000000000000,
000000000000000000000000000000800000000000000000,
#GOGOSTART
100000000000000000000000100000000000100000000000,
100000000000000000000000200000000000000000000000,
100000000000000000000000100000000000100000000000,
100000000000000000000000200000000000000000000000,
000000000000100000000000100000000000000000000000,
000000000000100000000000100000000000000000000000,
000000000000100000000000100000000000000000000000,
000000000000100000000000100000000000000000000000,
100000000000000000000000100000000000100000000000,
100000000000000000000000200000000000000000000000,
100000000000000000000000100000000000100000000000,
100000000000000000000000200000000000000000000000,
000000000000100000000000100000000000000000000000,
000000000000100000000000100000000000000000000000,
000000000000100000000000100000000000000000000000,
500000000000000000000000000000000000000000800000,
000000000000000000000000200000000000000000000000,
000000000000000000000000200000000000000000000000,
000000000000000000000000200000000000000000000000,
000000000000000000000000200000000000000000000000,
000000000000100000000000100000000000000000000000,
000000000000100000000000100000000000000000000000,
000000000000100000000000100000000000000000000000,
000000000000000000000000000000000000000000000000,
100000000000000000000000100000000000100000000000,
100000000000000000000000200000000000000000000000,
100000000000000000000000100000000000100000000000,
100000000000000000000000200000000000000000000000,
000000000000100000000000100000000000000000000000,
000000000000100000000000100000000000000000000000,
100000000000100000000000100000000000000000000000,
100000000000100000000000100000000000000000000000,
500000000000000000000000000000800000000000000000,
000000000000000000000000000000000000000000000000,
300000000000000000000000000000000000000000000000,
#GOGOEND
#END