Files
ESE-ja-fix/02 Anime/Chance!/Chance!.tja
T
2023-06-15 19:15:39 -05:00

307 lines
12 KiB
Plaintext

//TJADB Project
TITLE:Chance!
TITLEJA:チャンス!
SUBTITLE:--Tsukishima Kirari feat. Koharu Kusumi/Kirarin☆Revolution
SUBTITLEJA:「きらりん☆レボリューション」より
BPM:156
WAVE:Chance!.ogg
OFFSET:-1.780
DEMOSTART:61.747
COURSE:Oni
LEVEL:6
SCOREINIT:680
SCOREDIFF:180
#START
300000000000000000000000000000000000000000000000,
300000000000000000000000000000200000200000000000,
300000000000000000000000000000000000000000000000,
300000000000000000000000000000200200200000000000,
100000000000000000000000100000000000000000000000,
100000000000100000000000100000000000100000000000,
100000100000100000100000100000100000100000100000,
500000000000000000000000000000000008000000000000,
300000300000300000000000100000200200200000200000,
100000100100100000000000100100200200100000000000,
300000300000300000000000100000200200200000200000,
100000100100100000000000100100200200100000000000,
100000100100100000200200200000000000100100200200,
100000000000100100200200100000000000100100200200,
100000000000000000000000100000000100000000100000,
100100200200100000000000100100200200100000000000,
300000000000000000000000000000000000000000000000,
000000000000000000000000000000000000000000000000,
100000000000200000100000000000100000200000200000,
000000100000000000100000200000000000200000000000,
100000100100100000100100100000100000000000100000,
000000000000000000000000000000000000000000000000,
100000000000200000100000000000100000200000200000,
000000100000000000100000200000000000200000000000,
100000100100100000100100100000100000000000100000,
000000000000200000200200200000200200200000000000,
100000000000000000200000200000000000100000100000,
100000000000000000200000200000000000100000100000,
100000000000200000000000200000200000200000000000,
100000000000200000000000200000200000200000000000,
100000000000200000200000200000000000200000200000,
100000000000200000200000200000000000200000200000,
100000000000000000000000200000000200000000200000,
100000000000100000200000200000000000100000200000,
200000000000000000000000100000000100000000100000,
100000000000200200200000100000000100000000100000,
500000000000000000000000000000000000000008000000,
000000200000100000200000000000200000100000200000,
000000200200200000000200200200200000300000000000,
#GOGOSTART
300000300000300000000000100000200200200000200000,
100000100100100000000000100100200200100000000000,
300000300000300000000000100000200200200000200000,
100000100100100000000000100100200200100000000000,
100000100100100000200200200000000000100100200200,
100000000000100100200200100000000000100100200200,
100000000000100100200200100000000000200000000000,
100100200200100000200000100100200200100000000000,
300000300000300000000000100000200200200000200000,
100000100100100000000000100100200200100000000000,
300000300000300000000000100000200200200000200000,
100000100100100000000000100100200200100000000000,
100000100100100000200200200000000000100100200200,
100000000000100100200200100000000000100100200200,
100000000000200000000000100000000100000000100000,
100100200200100000200000100100200200100000000000,
300000000000200000000000200000200000200000000000,
100100200200100000000000100100200200100000000000,
#GOGOEND
300000000000000000000000000000000000000000000000,
#END
COURSE:Hard
LEVEL:4
SCOREINIT:760
SCOREDIFF:210
#START
300000000000000000000000000000000000000000000000,
300000000000000000000000000000200000200000000000,
300000000000000000000000000000000000000000000000,
300000000000000000000000000000200000200000000000,
100000000000000000000000100000000000000000000000,
100000000000000000000000100000000000000000000000,
100000000000100000000000100000000000100000000000,
500000000000000000000000000000000800000000000000,
300000300000300000000000100000100100100000000000,
200000200000200000000000100000000000000000000000,
300000300000300000000000100000100100100000000000,
200000200000200000000000100000000000000000000000,
100000100100100000000000200000000000200000000000,
100000100100100000000000200000000000000000000000,
100000100100100000000000200000000000200000000000,
100000100100100000000000100000100100100000000000,
300000000000000000000000000000000000000000000000,
000000000000000000000000000000000000000000000000,
100000000000200000200000000000000000000000000000,
100000000000200000200000000000000000200000000000,
100000100100100000000000100000100100100000000000,
100000000000000000000000000000000000000000000000,
100000000000200000200000000000000000000000000000,
100000000000200000200000000000000000200000000000,
100000100100100000000000100000100100100000000000,
100000000000000000000000000000000000000000000000,
100000000000000000200000200000000000100000000000,
100000000000000000200000200000000000100000000000,
100000000000000000200000200000000000200000000000,
200000000000000000000000100000000000000000000000,
100000000000200000200000100000000000200000200000,
100000000000200000200000100000000000200000000000,
100000000000000000000000100000000100000000100000,
100000000000000000000000100000000000000000000000,
100000000000200000200000100000000000200000200000,
100000000000200000200000100000000000200000000000,
500000000000000000000000000000000000000000000800,
000000000000000000000000000000000000000000000000,
000000000000000000000000000000000000300000000000,
#GOGOSTART
300000300000300000000000100000100100100000000000,
200000200000200000000000100000000000000000000000,
300000300000300000000000100000100100100000000000,
200000200000200000000000100000000000000000000000,
100000100100100000000000200000000000200000000000,
100000100100100000000000200000000000000000000000,
100000100100100000000000100000100100100000000000,
500000000000000000000000000000000800000000000000,
300000300000300000000000100000100100100000000000,
200000200000200000000000100000000000000000000000,
300000300000300000000000100000100100100000000000,
200000200000200000000000100000000000000000000000,
100000100100100000000000200000000000200000000000,
100000100100100000000000200000000000000000000000,
100000100100100000000000200000000000200000000000,
100000100100100000000000100000100100100000000000,
300000000000200000000000200000000000000000000000,
100000200200200000000000100000200200200000000000,
#GOGOEND
300000000000000000000000000000000000000000000000,
#END
COURSE:Normal
LEVEL:1
SCOREINIT:1040
SCOREDIFF:430
#START
300000000000000000000000000000000000000000000000,
300000000000000000000000000000000000000000000000,
300000000000000000000000000000000000000000000000,
300000000000000000000000000000000000000000000000,
100000000000000000000000100000000000000000000000,
100000000000000000000000100000000000000000000000,
100000000000000000000000100000000000000000000000,
500000000000000000000000000000800000000000000000,
300000000000000000000000100000000000000000000000,
100000000000100000000000100000000000000000000000,
300000000000000000000000100000000000000000000000,
100000000000100000000000100000000000000000000000,
200000000000000000000000200000000000000000000000,
200000000000200000000000200000000000000000000000,
100000000000000000000000100000000000000000000000,
100000000000000000000000000000000000000000000000,
300000000000000000000000000000000000000000000000,
000000000000000000000000000000000000000000000000,
100000000000100000000000100000000000000000000000,
100000000000000000000000100000000000000000000000,
100000000000100000000000100000000000000000000000,
100000000000000000000000000000000000000000000000,
100000000000100000000000100000000000000000000000,
100000000000000000000000100000000000000000000000,
100000000000100000000000100000000000000000000000,
100000000000000000000000000000000000000000000000,
100000000000000000000000200000000000000000000000,
200000000000000000000000200000000000000000000000,
100000000000000000000000200000000000000000000000,
200000000000000000000000000000000000000000000000,
100000000000000000000000000000000000000000000000,
100000000000000000000000100000000000000000000000,
100000000000000000000000000000000000000000000000,
100000000000000000000000100000000000000000000000,
100000000000000000000000200000000000000000000000,
200000000000000000000000200000000000000000000000,
500000000000000000000000000000000000000000800000,
000000000000000000000000000000000000000000000000,
000000000000000000000000000000000000000000000000,
#GOGOSTART
300000000000000000000000100000000000000000000000,
100000000000100000000000100000000000000000000000,
300000000000000000000000100000000000000000000000,
100000000000100000000000100000000000000000000000,
100000000000000000000000100000000000000000000000,
100000000000100000000000100000000000000000000000,
100000000000000000000000100000000000000000000000,
500000000000000000000000000000800000000000000000,
400000000000000000000000200000000000000000000000,
200000000000200000000000200000000000000000000000,
400000000000000000000000200000000000000000000000,
200000000000200000000000200000000000000000000000,
100000000000000000000000100000000000000000000000,
100000000000100000000000100000000000000000000000,
100000000000000000000000100000000000000000000000,
100000000000000000000000000000000000000000000000,
300000000000000000000000000000000000000000000000,
100000000000000000000000100000000000000000000000,
#GOGOEND
100000000000000000000000000000000000000000000000,
#END
COURSE:Easy
LEVEL:2
SCOREINIT:1140
SCOREDIFF:600
#START
100000000000000000000000000000000000000000000000,
100000000000000000000000000000000000000000000000,
100000000000000000000000000000000000000000000000,
100000000000000000000000000000000000000000000000,
100000000000000000000000100000000000000000000000,
100000000000000000000000100000000000000000000000,
100000000000000000000000100000000000000000000000,
500000000000000000000000800000000000000000000000,
300000000000000000000000100000000000000000000000,
100000000000000000000000000000000000000000000000,
300000000000000000000000100000000000000000000000,
100000000000000000000000000000000000000000000000,
100000000000000000000000100000000000000000000000,
100000000000000000000000100000000000000000000000,
100000000000000000000000100000000000000000000000,
100000000000000000000000000000000000000000000000,
300000000000000000000000000000000000000000000000,
000000000000000000000000000000000000000000000000,
100000000000000000000000100000000000000000000000,
100000000000000000000000000000000000000000000000,
100000000000000000000000100000000000000000000000,
100000000000000000000000000000000000000000000000,
100000000000000000000000100000000000000000000000,
100000000000000000000000000000000000000000000000,
100000000000000000000000100000000000000000000000,
100000000000000000000000000000000000000000000000,
100000000000000000000000200000000000000000000000,
200000000000000000000000000000000000000000000000,
100000000000000000000000200000000000000000000000,
200000000000000000000000000000000000000000000000,
100000000000000000000000000000000000000000000000,
100000000000000000000000000000000000000000000000,
100000000000000000000000000000000000000000000000,
100000000000000000000000000000000000000000000000,
100000000000000000000000200000000000000000000000,
100000000000000000000000200000000000000000000000,
500000000000000000000000000000000000000000800000,
000000000000000000000000000000000000000000000000,
000000000000000000000000000000000000000000000000,
#GOGOSTART
300000000000000000000000100000000000000000000000,
100000000000000000000000000000000000000000000000,
300000000000000000000000100000000000000000000000,
100000000000000000000000000000000000000000000000,
100000000000000000000000100000000000000000000000,
100000000000000000000000100000000000000000000000,
100000000000000000000000100000000000000000000000,
300000000000000000000000000000000000000000000000,
400000000000000000000000200000000000000000000000,
200000000000000000000000000000000000000000000000,
400000000000000000000000200000000000000000000000,
200000000000000000000000000000000000000000000000,
100000000000000000000000100000000000000000000000,
100000000000000000000000100000000000000000000000,
100000000000000000000000100000000000000000000000,
100000000000000000000000000000000000000000000000,
300000000000000000000000000000000000000000000000,
#GOGOEND
#END