forked from ESE/ESE
297 lines
12 KiB
Plaintext
297 lines
12 KiB
Plaintext
//TJADB Project
|
|
TITLE:DIVE TO WORLD
|
|
TITLEJA:DIVE TO WORLD
|
|
SUBTITLE:--CHERRYBLOSSOM/Katekyo Hitman REBORN!
|
|
SUBTITLEJA:「家庭教師ヒットマンREBORN!」より
|
|
BPM:147
|
|
WAVE:DIVE TO WORLD.ogg
|
|
OFFSET:-1.864
|
|
DEMOSTART:56.532
|
|
|
|
COURSE:Oni
|
|
LEVEL:9
|
|
BALLOON:10
|
|
SCOREINIT:610
|
|
SCOREDIFF:140
|
|
|
|
|
|
#START
|
|
|
|
|
|
100000000000100000000200100200000200100000000000,
|
|
100000200000100000000200100200000200100000000000,
|
|
100000000000100000000200100200000200100000000000,
|
|
100000100000100100100200100000300000300000000000,
|
|
100100000100100200200000100200000100000200000200,
|
|
100100200000100100000200100100200200000200000200,
|
|
100100100000100100200100100200200000300000300000,
|
|
202020202020200000200000000000300000300000000000,
|
|
100000100100100000100200000000100000100100100000,
|
|
100200000100200000100000000000200200200000100100,
|
|
100000100100000000100100100000100200200000300000,
|
|
200200100000200200100000200200100100200000100000,
|
|
200200100000100000100000200200100000100000100000,
|
|
200200100000200200100200000000200200200000100100,
|
|
100000100100000000100100100000100200200000200000,
|
|
100100200000100100200000100100000100000100200000,
|
|
100000100100100000100200000000100000100100100000,
|
|
100200000100200000100000000000200200200000100100,
|
|
100000100100000000100100100000100200200000100000,
|
|
200200100000200200100000200200100100200200100000,
|
|
100100200000200000200000100100200000200000200000,
|
|
100100200000100100200100000000200200200000200000,
|
|
300000000100000000100000000200100000200200100200,
|
|
000000100000100000100200000000100100100000200000,
|
|
100000000100000000100000000000200200200000200000,
|
|
100000000100000000100000000000100200200000100000,
|
|
100200100100000200100100100000100100100000100100,
|
|
100200100100100200100100100000300000300000000000,
|
|
100000000100000000100000000000200200200200200000,
|
|
100000000100000000100000000000100000000400000000,
|
|
100100100000100100100000100100100000100100100000,
|
|
100100100200100100100000100100100200100100100000,
|
|
100100100100100200100200100100100100100200100200,
|
|
200200200200200000200000400000000000400000000000,
|
|
|
|
#GOGOSTART
|
|
100000200200100000200200100100200000100000200000,
|
|
100000200200100000200200100100100000100000100100,
|
|
100000200200100000200200100000200200100000200000,
|
|
100200200000100200200000100100100200100000200000,
|
|
300000200000100200000200100200200000100000200000,
|
|
300000200000100200000200100200200000100000200200,
|
|
100000100200100200200000100000100200100200200000,
|
|
100200100200100100200000100200100200100100200000,
|
|
100000200200100000200000100100100000100000200000,
|
|
100000200200100000200000100100100200100000200000,
|
|
300000000000300000000000300000200200100000700000,
|
|
000000000000000000000000800000100100100000100000,
|
|
100000000000200000000000100000100000200000000000,
|
|
100000000000200000100000000000100000200000000000,
|
|
100000000000200000100000000000100200200000200000,
|
|
000000300000300000000000300000200200100000400000,
|
|
|
|
#GOGOEND
|
|
100000200000100000000200100200000200100000200000,
|
|
100000200000100000000200100200000200100000200000,
|
|
100000200000100000000200100200000200100000200000,
|
|
100000200200100000200200100200000200100000200000,
|
|
300000000000000000000000000000000000000000000000,
|
|
|
|
|
|
#END
|
|
|
|
|
|
COURSE:Hard
|
|
LEVEL:5
|
|
SCOREINIT:740
|
|
SCOREDIFF:200
|
|
|
|
|
|
#START
|
|
|
|
|
|
100000000000100000000000100000000000100000000000,
|
|
100000000000100000000000100000000000100000000000,
|
|
100000000000100000000000100000000000100000000000,
|
|
100000100100100000000000300000000000000000000000,
|
|
100000000000100000000000100000000000100000000000,
|
|
100000000000100000000000100000000100100000000000,
|
|
100000000000100000000000100000000100100000000000,
|
|
200000200000200000000000000000300000300000000000,
|
|
100000000100100000100000100000000000000000000000,
|
|
100000000100100000100000100000000000000000000000,
|
|
100000000100100000100000100000000000100000000000,
|
|
100000000100100000100000100000000000000000000000,
|
|
100000000100100000100000100000000000000000000000,
|
|
200000000200200000200000200000000000000000000000,
|
|
100000000100100000100000100000000000100000000000,
|
|
100000000100100000100000100000000000000000000000,
|
|
100000000100100000100000100000000000200000000000,
|
|
100000000100100000100000100000000000000000000000,
|
|
100000000100100000100000100000000000200000000000,
|
|
100000000100100000100000100000000000000000000000,
|
|
100000000100100000100000100000000000200000000000,
|
|
200000200200200000200000200000000000000000000000,
|
|
100000000100100000100000000000200000200000000000,
|
|
100000000100100000100000000000200000200000000000,
|
|
100000000100000000100000000000000000000000000000,
|
|
100000000100000000100000000000000000000000000000,
|
|
100000100100100000000000100000100000100000000000,
|
|
100000100100100000000000300000300000300000000000,
|
|
100000000100000000100000000000000000200000000000,
|
|
100000000100000000100000000000000000200000000000,
|
|
100000100100100000100000100000100000100000000000,
|
|
100000100100100000100000100000100000100000000000,
|
|
500000000000000000000000000000000000000000000800,
|
|
000000000000000000000000400000000000400000000000,
|
|
#GOGOSTART
|
|
100000000000100000000000100100100000100000000000,
|
|
100000000000100000000000100100100000100000000000,
|
|
100000000000100000000000100100100000100000000000,
|
|
100000000000100000000000100000000000000000000000,
|
|
100000000000100000000000200200200000200000000000,
|
|
100000000000100000000000200200200000200000000000,
|
|
100000000000100000000000100100100000100000000000,
|
|
100100100000100000000000100000000000000000000000,
|
|
100000000000100000000000100100100000100000000000,
|
|
100000000000100000000000100100100000100000000000,
|
|
300000000000300000000000300000000000300000000000,
|
|
500000000000000000000800000000000000000000000000,
|
|
100000000000100000000000100100100000100000000000,
|
|
100000000000100000000000100100100000100000000000,
|
|
100000000000100000000000100100100000100000100000,
|
|
000000300000300000000000300000000000300000000000,
|
|
#GOGOEND
|
|
100000000100100000100000100000000000100000000000,
|
|
100000000100100000100000100000000000000000000000,
|
|
100000000100100000100000100000000000100000000000,
|
|
100000000100100000100000100000000000100000000000,
|
|
300000000000000000000000000000000000000000000000,
|
|
|
|
|
|
#END
|
|
|
|
|
|
COURSE:Normal
|
|
LEVEL:5
|
|
SCOREINIT:890
|
|
SCOREDIFF:230
|
|
|
|
|
|
#START
|
|
|
|
|
|
100000000000100000000000100000000000100000000000,
|
|
100000000000100000000000100000000000000000000000,
|
|
100000000000100000000000100000000000100000000000,
|
|
300000000000300000000000300000000000000000000000,
|
|
100000000000100000000000100000000000100000000000,
|
|
100000000000000000000000100000100000100000000000,
|
|
100000000000100000000000100000000000100000000000,
|
|
300000000000000000000000100000000000000000000000,
|
|
100000000000100000100000100000000000000000000000,
|
|
100000000000100000100000100000000000000000000000,
|
|
100000000000100000100000100000000000000000000000,
|
|
100000000000100000100000100000000000000000000000,
|
|
200000000000200000200000200000000000000000000000,
|
|
200000000000200000200000200000000000000000000000,
|
|
100000000000100000100000100000000000000000000000,
|
|
100000000000100000000000100000000000100000000000,
|
|
500000000000000000000000800000000000000000000000,
|
|
100000000000100000100000100000000000000000000000,
|
|
100000000000100000100000100000000000000000000000,
|
|
100000000000100000100000100000000000000000000000,
|
|
200000000000200000200000200000000000000000000000,
|
|
200000000000200000200000200000000000000000000000,
|
|
100000000000100000100000100000000000000000000000,
|
|
100000000000100000100000100000000000000000000000,
|
|
100000000100000000100000000000000000200000000000,
|
|
100000000100000000100000000000000000000000000000,
|
|
100000000000100000000000100000000000100000000000,
|
|
100000000000000000000000100000100000100000000000,
|
|
100000000100000000100000000000000000200000000000,
|
|
100000000100000000100000000000000000000000000000,
|
|
100000000000100000000000100000000000100000000000,
|
|
100000000000100000000000100000100000100000000000,
|
|
500000000000000000000000000000000000000000800000,
|
|
000000000000000000000000000000000000000000000000,
|
|
#GOGOSTART
|
|
100000000000100000000000100000100000100000000000,
|
|
100000100000100000000000100000000000000000000000,
|
|
100000000000100000000000100000100000100000000000,
|
|
100000100000100000000000100000000000000000000000,
|
|
200000000000200000000000200000200000200000000000,
|
|
200000200000200000000000200000000000000000000000,
|
|
100000000000100000000000100000100000100000000000,
|
|
100000100000100000000000100000000000000000000000,
|
|
100000000000100000100000100000000000000000000000,
|
|
100000000000100000100000100000000000000000000000,
|
|
300000000000300000000000300000000000300000000000,
|
|
500000000000000000000000800000000000000000000000,
|
|
100000000000100000000000100000100000100000000000,
|
|
100000100000100000000000100000000000000000000000,
|
|
100000000000100000000000100000000000100000000000,
|
|
300000000000000000000000300000000000000000000000,
|
|
#GOGOEND
|
|
100000000000100000000000100000100000100000000000,
|
|
100000100000100000000000100000000000000000000000,
|
|
100000000000100000000000100000100000100000000000,
|
|
100000100000100000000000100000000000000000000000,
|
|
300000000000000000000000000000000000000000000000,
|
|
|
|
|
|
#END
|
|
|
|
|
|
COURSE:Easy
|
|
LEVEL:3
|
|
SCOREINIT:690
|
|
SCOREDIFF:220
|
|
|
|
|
|
#START
|
|
|
|
|
|
100000000000000000000000100000000000000000000000,
|
|
100000000000000000000000100000000000000000000000,
|
|
100000000000000000000000100000000000000000000000,
|
|
300000000000000000000000300000000000000000000000,
|
|
100000000000100000000000100000000000000000000000,
|
|
100000000000100000000000100000000000000000000000,
|
|
100000000000100000000000100000000000000000000000,
|
|
100000000000100000000000000000000000000000000000,
|
|
100000000000000000000000100000000000000000000000,
|
|
100000000000100000000000100000000000000000000000,
|
|
100000000000000000000000100000000000000000000000,
|
|
100000000000100000000000100000000000000000000000,
|
|
200000000000000000000000200000000000000000000000,
|
|
200000000000200000000000200000000000000000000000,
|
|
100000000000000000000000100000000000000000000000,
|
|
100000000000100000000000100000000000000000000000,
|
|
500000000000000000000000800000000000000000000000,
|
|
100000000000100000000000100000000000000000000000,
|
|
100000000000000000000000100000000000000000000000,
|
|
100000000000100000000000100000000000000000000000,
|
|
200000000000000000000000200000000000000000000000,
|
|
200000000000200000000000200000000000000000000000,
|
|
100000000000100000000000100000000000000000000000,
|
|
100000000000100000000000100000000000000000000000,
|
|
100000000000000000100000000000000000000000000000,
|
|
100000000000000000100000000000000000000000000000,
|
|
100000000000100000000000100000000000000000000000,
|
|
100000000000100000000000100000000000000000000000,
|
|
100000000000000000100000000000000000000000000000,
|
|
100000000000000000100000000000000000000000000000,
|
|
100000000000100000000000100000000000100000000000,
|
|
100000000000100000000000100000000000000000000000,
|
|
500000000000000000000000000000000000000000800000,
|
|
000000000000000000000000000000000000000000000000,
|
|
#GOGOSTART
|
|
100000000000100000000000100000000000100000000000,
|
|
100000000000100000000000100000000000000000000000,
|
|
100000000000100000000000100000000000100000000000,
|
|
100000000000100000000000100000000000000000000000,
|
|
200000000000200000000000200000000000200000000000,
|
|
200000000000200000000000200000000000000000000000,
|
|
100000000000100000000000100000000000100000000000,
|
|
100000000000100000000000100000000000000000000000,
|
|
100000000000000000000000100000000000000000000000,
|
|
100000000000000000000000100000000000000000000000,
|
|
300000000000300000000000300000000000300000000000,
|
|
600000000000000000000000800000000000000000000000,
|
|
100000000000000000000000100000000000000000000000,
|
|
100000000000100000000000100000000000000000000000,
|
|
100000000000000000000000100000000000000000000000,
|
|
300000000000000000000000300000000000000000000000,
|
|
#GOGOEND
|
|
100000000000100000000000100000000000000000000000,
|
|
100000000000100000000000100000000000000000000000,
|
|
100000000000100000000000100000000000000000000000,
|
|
100000000000100000000000100000000000000000000000,
|
|
300000000000000000000000000000000000000000000000,
|
|
|
|
|
|
#END
|
|
|