forked from ESE/ESE
358 lines
9.6 KiB
Plaintext
358 lines
9.6 KiB
Plaintext
//TJADB Project
|
||
TITLE:Doraemon Ondo
|
||
TITLEJA:ドラえもん音頭
|
||
SUBTITLE:--Koorogi ‘73/Doraemon -Sunday Version-
|
||
BPM:110
|
||
WAVE:Doraemon Ondo.ogg
|
||
OFFSET:-4.732
|
||
DEMOSTART:13.459
|
||
|
||
COURSE:Oni
|
||
LEVEL:4
|
||
|
||
|
||
#START
|
||
|
||
|
||
1,
|
||
1,
|
||
11,
|
||
10001110,
|
||
2011,
|
||
1011,
|
||
1011,
|
||
|
||
#BRANCHSTART p,75,999
|
||
#N
|
||
11,
|
||
10111000,
|
||
1110,
|
||
10111000,
|
||
1110,
|
||
10111000,
|
||
10101110,
|
||
10101110,
|
||
|
||
#E
|
||
1001101010002020,
|
||
1001101010000000,
|
||
1001101010002020,
|
||
1001101010000000,
|
||
1001101010002020,
|
||
1001101010003000,
|
||
1002102010101000,
|
||
1002102010101000,
|
||
|
||
#M
|
||
,
|
||
,
|
||
,
|
||
,
|
||
,
|
||
,
|
||
,
|
||
,
|
||
|
||
#BRANCHSTART p,75,90
|
||
#N
|
||
20001011,
|
||
00001011,
|
||
11,
|
||
500000000000000000000000000000000008000000000000,
|
||
0000000010111000,
|
||
0000000010111000,
|
||
,
|
||
1,
|
||
1,
|
||
1,
|
||
11,
|
||
10001110,
|
||
|
||
#E
|
||
0001101010002020,
|
||
0001101010002020,
|
||
11,
|
||
500000000000000000000000000000000008000000000000,
|
||
1011101110111000,
|
||
1011101110111000,
|
||
,
|
||
1,
|
||
10101112,
|
||
12121210,
|
||
11,
|
||
1000000010101002,
|
||
|
||
#M
|
||
0001101010002020,
|
||
0001101010002020,
|
||
11,
|
||
500000000000000000000000000000000008000000000000,
|
||
1011101110111000,
|
||
1011101110111000,
|
||
,
|
||
1,
|
||
1011101110101022,
|
||
1020102210101000,
|
||
11,
|
||
1000000010101002,
|
||
|
||
#BRANCHSTART p,75,90
|
||
#N
|
||
2011,
|
||
1011,
|
||
1011,
|
||
1001100010000000,
|
||
10111000,
|
||
1001100010000000,
|
||
10111000,
|
||
1001100010000000,
|
||
10111000,
|
||
10101110,
|
||
10101110,
|
||
20001011,
|
||
00001011,
|
||
11,
|
||
500000000000000000000000000000000008000000000000,
|
||
0000000010111020,
|
||
0000000010111020,
|
||
00001110,
|
||
00001110,
|
||
1000100010111000,
|
||
1000100010111000,
|
||
|
||
#E
|
||
0001101010002020,
|
||
1101101010001000,
|
||
1,
|
||
1001101010002020,
|
||
1001101010000000,
|
||
1001101010002020,
|
||
1001101010000000,
|
||
1001101010002020,
|
||
1001101010003000,
|
||
1002102010101000,
|
||
1002102010101000,
|
||
0001101010002020,
|
||
0001101010002020,
|
||
11,
|
||
500000000000000000000000000000000008000000000000,
|
||
1011101110111000,
|
||
1011101110111000,
|
||
10101112,
|
||
1010102010111000,
|
||
10101112,
|
||
1010102010111000,
|
||
|
||
#M
|
||
2001101010222020,
|
||
1101101010001000,
|
||
1000202022022020,
|
||
2001101010002020,
|
||
1001101010222020,
|
||
1001101010002020,
|
||
1001101010222020,
|
||
1001101010002020,
|
||
1001101010003000,
|
||
1002102010101000,
|
||
1002102010101000,
|
||
0001101010002020,
|
||
0001101010002020,
|
||
11,
|
||
500000000000000000000000000000000008000000000000,
|
||
1011101110111000,
|
||
1011101110111000,
|
||
1000100010111020,
|
||
1022102210111020,
|
||
1000100010111020,
|
||
1022102210111020,
|
||
|
||
#BRANCHEND
|
||
|
||
|
||
#END
|
||
|
||
|
||
COURSE:Hard
|
||
LEVEL:1
|
||
SCOREINIT:730
|
||
SCOREDIFF:180
|
||
|
||
|
||
#START
|
||
|
||
|
||
100000000000000000000000000000000000000000000000,
|
||
100000000000000000000000000000000000000000000000,
|
||
100000000000000000000000100000000000000000000000,
|
||
100000000000000000000000100000100000100000000000,
|
||
200000000000100000100000100000000000200000000000,
|
||
100000000000100000100000100000000000100000000000,
|
||
100000000000200000200000200000000000000000000000,
|
||
100000000100100000100000100000000000200000000000,
|
||
100000000100100000100000100000000000200000000000,
|
||
100000000100100000100000100000000000200000000000,
|
||
100000000100100000100000100000000000200000000000,
|
||
100000000100100000100000100000000000200000000000,
|
||
100000000100100000100000100000000000200000000000,
|
||
100000000100100000200000100000100000100000000000,
|
||
100000000100100000200000100000100000100000000000,
|
||
200000000000100000100000100000000000200000200000,
|
||
000000000000100000100000100000000000200000200000,
|
||
100000000000000000000000100000000000000000000000,
|
||
500000000000000000000000000000000800000000000000,
|
||
100000100100100000100100100000100100100000000000,
|
||
100000100100100000100100100000100100100000000000,
|
||
000000000000000000000000000000000000000000000000,
|
||
100000000000000000000000000000000000000000000000,
|
||
100000100100100000000000100000100100100000000000,
|
||
100000100000100000000000100000100000100000000000,
|
||
100000000000000000000000100000000000000000000000,
|
||
100000000000000000000000100000100000100000000000,
|
||
200000000000100000100000100000000000200000000000,
|
||
100000000000100000100000100000000000100000000000,
|
||
100000000000200000200000200000000000000000000000,
|
||
100000000100100000100000100000000000200000000000,
|
||
100000000100100000100000100000000000200000000000,
|
||
100000000100100000100000100000000000200000000000,
|
||
100000000100100000100000100000000000200000000000,
|
||
100000000100100000100000100000000000200000000000,
|
||
100000000100100000100000100000000000200000000000,
|
||
100000000100100000200000100000100000100000000000,
|
||
100000000100100000200000100000100000100000000000,
|
||
200000000000100000100000100000000000200000200000,
|
||
000000000000100000100000100000000000200000200000,
|
||
100000000000000000000000100000000000000000000000,
|
||
500000000000000000000000000000000800000000000000,
|
||
100000100100100000100100100000100100100000000000,
|
||
100000100100100000100100100000100100100000000000,
|
||
100000000000100000000000100000100000100000000000,
|
||
100000100100100000100100100000100100100000000000,
|
||
100000000000100000000000100000100000100000000000,
|
||
100000100100100000100100100000100100100000000000,
|
||
|
||
|
||
#END
|
||
|
||
|
||
COURSE:Normal
|
||
LEVEL:1
|
||
SCOREINIT:1120
|
||
SCOREDIFF:350
|
||
|
||
|
||
#START
|
||
|
||
|
||
100000000000000000000000000000000000000000000000,
|
||
100000000000000000000000000000000000000000000000,
|
||
100000000000000000000000100000000000000000000000,
|
||
100000000000000000000000100000100000100000000000,
|
||
200000000000000000000000100000000000100000000000,
|
||
100000000000000000000000100000000000100000000000,
|
||
100000000000000000000000100000000000100000000000,
|
||
100000000000000000000000100000000000000000000000,
|
||
100000000000100000100000100000000000000000000000,
|
||
100000000000100000000000100000000000000000000000,
|
||
100000000000100000100000100000000000000000000000,
|
||
100000000000100000000000100000000000000000000000,
|
||
100000000000100000100000100000000000000000000000,
|
||
100000000000100000000000100000100000100000000000,
|
||
100000000000100000000000100000100000100000000000,
|
||
200000000000000000000000100000000000100000100000,
|
||
000000000000000000000000100000000000100000100000,
|
||
100000000000000000000000100000000000000000000000,
|
||
500000000000000000000000000000000800000000000000,
|
||
100000100100100000000000000000000000000000000000,
|
||
100000100100100000000000000000000000000000000000,
|
||
000000000000000000000000000000000000000000000000,
|
||
100000000000000000000000000000000000000000000000,
|
||
100000000000000000000000000000000000000000000000,
|
||
100000000000000000000000000000000000000000000000,
|
||
100000000000000000000000100000000000000000000000,
|
||
100000000000000000000000100000100000100000000000,
|
||
200000000000000000000000100000000000100000000000,
|
||
100000000000000000000000100000000000100000000000,
|
||
100000000000000000000000100000000000100000000000,
|
||
100000000100100000000000100000000000000000000000,
|
||
100000000000100000100000100000000000000000000000,
|
||
100000000100100000000000100000000000000000000000,
|
||
100000000000100000100000100000000000000000000000,
|
||
100000000100100000000000100000000000000000000000,
|
||
100000000000100000100000100000000000000000000000,
|
||
100000000000100000000000100000100000100000000000,
|
||
100000000000100000000000100000100000100000000000,
|
||
200000000000000000000000100000000000100000100000,
|
||
000000000000000000000000100000000000100000100000,
|
||
100000000000000000000000100000000000000000000000,
|
||
500000000000000000000000000000000800000000000000,
|
||
100000100100100000000000000000000000000000000000,
|
||
100000100100100000000000000000000000000000000000,
|
||
100000100000100000000000000000000000000000000000,
|
||
100000100000100000000000000000000000000000000000,
|
||
100000000000100000000000100000100100100000000000,
|
||
100000000000100000000000100000100100100000000000,
|
||
|
||
|
||
#END
|
||
|
||
|
||
COURSE:Easy
|
||
LEVEL:1
|
||
SCOREINIT:1150
|
||
SCOREDIFF:490
|
||
|
||
|
||
#START
|
||
|
||
|
||
100000000000000000000000000000000000000000000000,
|
||
100000000000000000000000000000000000000000000000,
|
||
100000000000000000000000100000000000000000000000,
|
||
100000000000000000000000100000100000100000000000,
|
||
000000000000000000000000100000000000100000000000,
|
||
100000000000000000000000100000000000000000000000,
|
||
100000000000100000000000100000000000000000000000,
|
||
100000000000000000000000100000000000100000000000,
|
||
100000000000000000000000100000000000000000000000,
|
||
100000000000100000000000100000000000000000000000,
|
||
100000000000000000000000100000000000100000000000,
|
||
100000000000000000000000100000000000000000000000,
|
||
100000000000100000000000100000000000000000000000,
|
||
000000000000000000000000100000100000100000000000,
|
||
000000000000000000000000100000100000100000000000,
|
||
000000000000000000000000000000000000200000000000,
|
||
000000000000000000000000000000000000200000000000,
|
||
100000000000000000000000100000000000000000000000,
|
||
500000000000000000000000000000000800000000000000,
|
||
100000100000100000000000000000000000000000000000,
|
||
100000100000100000000000000000000000000000000000,
|
||
000000000000000000000000000000000000000000000000,
|
||
100000000000000000000000000000000000000000000000,
|
||
100000000000000000000000000000000000000000000000,
|
||
100000000000000000000000000000000000000000000000,
|
||
100000000000000000000000100000000000000000000000,
|
||
100000000000000000000000100000100000100000000000,
|
||
000000000000000000000000100000000000100000000000,
|
||
100000000000000000000000100000000000000000000000,
|
||
100000000000100000000000100000000000000000000000,
|
||
100000000000000000000000100000000000100000000000,
|
||
100000000000000000000000100000000000000000000000,
|
||
100000000000100000000000100000000000000000000000,
|
||
100000000000000000000000100000000000100000000000,
|
||
100000000000000000000000100000000000000000000000,
|
||
100000000000100000000000100000000000000000000000,
|
||
000000000000000000000000100000100000100000000000,
|
||
000000000000000000000000100000100000100000000000,
|
||
000000000000000000000000000000000000200000000000,
|
||
000000000000000000000000000000000000200000000000,
|
||
300000000000000000000000100000000000000000000000,
|
||
500000000000000000000000000000000800000000000000,
|
||
100000100000100000000000000000000000000000000000,
|
||
100000100000100000000000000000000000000000000000,
|
||
000000000000000000000000100000100000100000000000,
|
||
000000000000000000000000100000100000100000000000,
|
||
|
||
|
||
#END
|
||
|