Files
ESE-ja-fix/02 Anime/ETERNAL BLAZE/ETERNAL BLAZE.tja
T
2023-01-17 00:45:18 -05:00

338 lines
5.0 KiB
Plaintext
Raw Blame History

This file contains ambiguous Unicode characters
This file contains Unicode characters that might be confused with other characters. If you think that this is intentional, you can safely ignore this warning. Use the Escape button to reveal them.
//TJADB Project
TITLE:ETERNAL BLAZE
TITLEJA:ETERNAL BLAZE
SUBTITLE:--Nana Mizuki/Mahou Shoujo Lyrical Nanoha A’s
SUBTITLEJA:水樹奈々
BPM:107.48
WAVE:ETERNAL BLAZE.ogg
OFFSET:-9.412
DEMOSTART:67.365
COURSE:Oni
LEVEL:7
BALLOON:38,38
SCOREINIT:850
SCOREDIFF:225
#START
7,
#MEASURE 6/4
#BPMCHANGE 103.33
0008
#BPMCHANGE 156
00,
#MEASURE 4/4
#BPMCHANGE 155
1202,
1202,
1202,
1000200000112000,
10210121,
1000201000112000,
10210121,
1000201000112011,
1001001010002000,
1001001010002011,
1001001010002000,
1001001010002011,
1010201100102000,
1010201100102000,
1000201110102011,
100000100000500000000000000000000008000000100100,
1001001010002000,
1001001010002011,
1001001010002000,
1001001010002010,
1000201110102011,
100000200000200000500000000000000008000000100100,
10330404,
0030300020001122,
0000400011102010,
0010200010001122,
0000400011102010,
000000100000500000000000000000000008000000100100,
1000201000102011,
1000201000102011,
1000001110102011,
1010000030040040,
600000000000000000000008000000400000400000400000,
,
#GOGOSTART
1011201110102011,
1011201010002211,
1011201210102011,
100000100000500000000000000000000008000000100000,
1011201012102010,
1011201012102022,
1011201210100060,
000000000008000000600000000000000008000000000000,
1011201110102022,
1011201020002211,
1011201210102011,
100000100000500000000000000008000000300000300000,
40430033,
400000300000000000600000000000000008000000000000,
3003003040040040,
40011225,
,
000000000000000000000000000000000008000000000000,
3003003040040040,
40034040,
7,
,
000000000000000000000000000000000000000000000008,
#END
COURSE:Hard
LEVEL:5
BALLOON:28,28
SCOREINIT:890
SCOREDIFF:250
#START
7,
#MEASURE 6/4
#BPMCHANGE 103.33
0008
#BPMCHANGE 156
00,
#MEASURE 4/4
#BPMCHANGE 155
1202,
1202,
1202,
1202,
10201120,
10210120,
10201120,
10210120,
1001001010002000,
1001001010002000,
1001001010002000,
1001001010002000,
1010101100002000,
1010101100002000,
1000100010010010,
100000000000500000000000000000000008000000000000,
1001001010002000,
1001001010202000,
1001001010002000,
1001001010202000,
1122,
100000100000200000500000000000000008000000000000,
10110101,
000000100000500000000000000000000000000008000000,
00401022,
000000500000000000000000000000000000000008000000,
00401022,
000000500000000000000000000000000008000000000000,
10210220,
10210220,
1000201000111000,
1000201000111010,
500000000000000000000008000000300000300000300000,
,
#GOGOSTART
1000100010111020,
11211020,
1000100010111020,
500000000000000000000000000008000000000000100000,
1001001010002010,
1001001010002011,
1001001010100060,
000000000008000000600000000000000008000000000000,
1000100010222020,
11211020,
1000100010222020,
500000000000000000000008000000000000300000300000,
30440033,
300000300000000000600000000000000008000000000000,
3003003030030030,
30011225,
,
000000000000000000000008000000000000000000000000,
3003003030030030,
30034040,
9,
,
000000000000000000000000000000000000000000000008,
#END
COURSE:Normal
LEVEL:3
BALLOON:23,7,23
SCOREINIT:1140
SCOREDIFF:450
#START
7,
#MEASURE 6/4
#BPMCHANGE 103.33
0008
#BPMCHANGE 156
00,
#MEASURE 4/4
#BPMCHANGE 155
1,
1,
1,
1,
1110,
11,
1110,
11,
1110,
22,
1110,
22,
1110,
1110,
1122,
500000000000000000000000000008000000000000000000,
1110,
22,
1110,
22,
1122,
500000000000000000000000000008000000000000000000,
10101005,
000000000000000000000000000008000000000000000000,
00400005,
000000000000000000000000000000000008000000000000,
00400007,
0008,
10010000,
10010000,
1110,
2220,
500000000000000000000000000000000000000000000008,
,
#GOGOSTART
10101011,
10111000,
10101011,
500000000000000000000000000008000000000000000000,
1110,
2220,
30303006,
000000000008000000600000000000000008000000000000,
10101022,
20222000,
10101022,
500000000000000000000000000008000000000000000000,
30030000,
30030000,
33,
30003036,
,
000000000000000000000000000008000000000000000000,
33,
3033,
9,
,
000000000000000000000000000000000000000000000008,
#END
COURSE:Easy
LEVEL:3
BALLOON:15,5,15
SCOREINIT:1020
SCOREDIFF:585
#START
7,
#MEASURE 6/4
#BPMCHANGE 103.33
0008
#BPMCHANGE 156
00,
#MEASURE 4/4
#BPMCHANGE 155
11,
1,
11,
1,
1110,
11,
1110,
1,
1,
1,
2,
2,
1110,
1110,
11,
500000000000000000000000000008000000000000000000,
1,
1,
2,
2,
11,
1,
10101005,
000000000000000000000000000000000008000000000000,
00400005,
000000000000000000000000000000000008000000000000,
00400005,
000000000000000000000000000008000000000000000000,
12,
12,
1110,
2220,
7,
8,
#GOGOSTART
1110,
1110,
2220,
500000000000000000000000000008000000000000000000,
33,
44,
30003006,
000000000000000000000000000008000000000000000000,
1110,
1110,
2220,
500000000000000000000000000008000000000000000000,
3,
4,
33,
3,
6,
000000000000000000000008000000000000000000000000,
33,
3033,
9,
,
000000000000000000000000000000000000000000000008,
#END