Files
ESE-ja-fix/02 Anime/FAITH/FAITH.tja
T
2023-06-15 19:15:39 -05:00

221 lines
8.1 KiB
Plaintext

//TJADB Project
TITLE:FAITH
TITLEJA:FAITH
SUBTITLE:--Ruppina+/ONE PIECE
SUBTITLEJA:ワンピース
BPM:144
WAVE:FAITH.ogg
OFFSET:-1.972
DEMOSTART:36.277
COURSE:Oni
LEVEL:7
BALLOON:10,25
SCOREINIT:1180
SCOREDIFF:310
#START
000000000000000000000000000000000000000000000000,
000000000000000000000000000000000000000000000000,
000000000000000000000000000000100000100000100000,
000000200000200000200000000000100000100000100000,
000000200200200000000000100000000100000000100000,
100000000100000000500000000000000000000000000000,
000000000000000008000000000000100000100000100000,
000000200000200000200000000000100000100000100000,
000000200200200000100000000000100000000000100000,
100000000100000000500000000000000000000000000000,
000000000008000000000000100000000000100000000000,
100000000000000000200200200000000000200200200000,
000000000000100000000000100000000000100000000000,
100000000000000000100000000000000000100000000000,
100000200100000200100000100000200100000200100000,
100000000000000000000000000000000000000000000000,
000000000000100000000000100000200100000000100200,
100000200100000000700000000000000000000000000000,
000000000000000000000000000800000000000000000000,
100000200100200000100000200100200000100000200100,
200000000000000000000000000000000000000000000000,
300000100000100100100000100000100000100100100000,
100000100000100100100000100000100000100100100000,
100000100100100000100100100000100100100000100100,
200000200000200000200200000000000000100000100100,
100000100000200000100100100000100000200000100100,
100000200100000200100000100000100000200000100000,
500000000000000000000008000000000000100100100000,
000000200000200000200000200000100000100100200000,
200000100000100100200000200000100000100100200000,
200000100000100100200000200000100000100100200000,
200000100100200000100100200000100100200000100100,
200000200000200000200200000000000000100000100100,
100000100000200000200200000000000000100000100100,
100000200100000200100000000000200000100100100000,
100000200000200000100000200000200000700000000000,
000000000000000000000000000000000000000000000000,
000000000000000000000000000000000000000000000000,
000000000000000000000000000000800000000000000000,
#END
COURSE:Hard
LEVEL:5
BALLOON:10,20
SCOREINIT:1280
SCOREDIFF:360
#START
000000000000000000000000000000000000000000000000,
000000000000000000000000000000000000000000000000,
000000000000000000000000000000100000100000100000,
000000200000200000200000000000100000100000100000,
000000200200200000000000100000000100000000100000,
100000000100000000500000000000000000000000000000,
000000000000000800000000000000100000100000100000,
000000200000200000200000000000100000100000100000,
000000200200200000100000000000100000000000100000,
100000000100000000500000000000000000000000000000,
000000000800000000000000100000000000100000000000,
100000000000000000200200200000000000200200200000,
000000000000100000000000100000000000100000000000,
100000000000000000100000000000000000100000000000,
100000100100000100100000100000100100000100100000,
100000000000000000000000000000000000000000000000,
000000000000100000000000100000100100000100100000,
100000100100000100700000000000000000000000000000,
000000000000000000000000000800000000000000000000,
200000100000100000200000100000100000200000100000,
200000000000000000000000000000000000000000000000,
300000100100100000100000100000100000100000000000,
100000100100100000100000100000100000100000000000,
100000100100100000100100100000100100100000100100,
200000200000200000200200000000000000000000000000,
100000100000100000100100000000000000000000000000,
100000100000100000100100000000000000100000000000,
500000000000000000000800000000000000200000100000,
000000200200200000200000200000100000100000100000,
100000100100200000100000100000100000200000000000,
100000100100200000100000100000100000200000000000,
100000100100200000100100200000100100200000100100,
200000200000200000200200000000000000000000000000,
100000100000200000200200000000000000000000000000,
100000100000200000200200000000000000100000000000,
100000200000200000100000200000200000700000000000,
000000000000000000000000000000000000000000000000,
000000000000000000000000000800000000000000000000,
#END
COURSE:Normal
LEVEL:4
BALLOON:10,15
SCOREINIT:2010
SCOREDIFF:950
#START
000000000000000000000000000000000000000000000000,
000000000000000000000000000000000000000000000000,
000000000000000000000000000000100000100000100000,
000000000000000000000000000000100000100000100000,
000000000000000000000000100000000100000000100000,
100000000000000000500000000000000000000000800000,
000000000000000000000000000000100000100000100000,
000000000000000000000000000000100000100000100000,
000000000000000000200000000000200000000000200000,
200000000000000000500000000000000000000000800000,
000000000000000000000000100000000000100000000000,
100000000000000000200000200000000000200000200000,
000000000000100000000000100000000000100000000000,
100000000000000000100000000000000000100000000000,
100000000000000000000000100000000000000000000000,
100000000000000000000000000000000000000000000000,
000000000000100000000000100000000000000000000000,
100000000000000000700000000000000000000000000000,
000000000000000000000000000000800000000000000000,
200000000000200000200000000000200000200000000000,
200000000000000000000000000000000000000000000000,
300000000000100000100000000000100000000000000000,
100000000000100000100000000000100000000000000000,
100000000000100000100000000000100000000000100000,
000000200000000000000000000000000000100000000000,
100000000000000000200000000000000000100000000000,
100000000000000000200000000000000000000000000000,
500000000000000000800000000000000000100000100000,
000000000000000000000000000000100000100000100000,
100000000000100000100000000000100000000000000000,
100000000000100000100000000000100000000000000000,
100000000000100000100000000000100000000000100000,
000000200000000000000000000000000000100000000000,
100000000000000000200000000000000000100000000000,
100000000000000000200000000000000000000000000000,
100000000000000000100000000000000000700000000000,
000000000000000000000000000000000000000000000000,
000000000000000000000000800000000000000000000000,
#END
COURSE:Easy
LEVEL:4
SCOREINIT:2200
SCOREDIFF:1470
#START
000000000000000000000000000000000000000000000000,
000000000000000000000000000000000000000000000000,
000000000000000000000000000000100000100000100000,
000000000000000000000000000000100000100000100000,
000000000000000000000000100000000000100000000000,
100000000000000000500000000000000000000000800000,
000000000000000000000000000000100000100000100000,
000000000000000000000000000000100000100000100000,
000000000000000000000000100000000000100000000000,
100000000000000000500000000000000000000000800000,
000000000000000000000000100000000000000000000000,
100000000000000000100000000000000000100000000000,
100000000000000000000000100000000000000000000000,
100000000000000000100000000000000000100000000000,
100000000000000000000000100000000000000000000000,
100000000000000000000000000000000000000000000000,
000000000000000000000000100000000000100000000000,
100000000000000000500000000000000000000000000000,
000000800000000000000000000000000000000000000000,
100000000000000000100000000000000000100000000000,
100000000000000000000000000000000000000000000000,
100000000000100000000000100000000000000000000000,
300000000000000000000000000000000000000000000000,
100000000000100000000000100000000000000000000000,
300000000000000000000000000000000000100000000000,
100000000000000000200000000000000000100000000000,
100000000000000000200000000000000000000000000000,
500000000000000000800000000000000000000000000000,
300000000000000000000000000000000000000000000000,
100000000000100000000000100000000000000000000000,
300000000000000000000000000000000000000000000000,
100000000000100000000000100000000000000000000000,
300000000000000000000000000000000000100000000000,
100000000000000000200000000000000000100000000000,
100000000000000000200000000000000000000000000000,
300000000000000000300000000000000000500000000000,
000000000000000000000000000000000000000000800000,
#END