forked from ESE/ESE
362 lines
8.7 KiB
Plaintext
362 lines
8.7 KiB
Plaintext
//TJADB Project
|
|
TITLE:Fukou no Kuni no Ohime-sama
|
|
TITLEJA:フコウの国のお姫さま
|
|
SUBTITLE:--Moriri/Fukomari
|
|
SUBTITLEJA:「フコウモリ」より
|
|
BPM:118
|
|
WAVE:Fukou no Kuni no Ohime-sama.ogg
|
|
OFFSET:-2.207
|
|
DEMOSTART:66.082
|
|
|
|
COURSE:Oni
|
|
LEVEL:5
|
|
BALLOON:10
|
|
SCOREINIT:770
|
|
SCOREDIFF:190
|
|
|
|
|
|
#START
|
|
|
|
|
|
,
|
|
#BPMCHANGE 120.58
|
|
,
|
|
#BPMCHANGE 110.8
|
|
0
|
|
#BPMCHANGE 107.1
|
|
0
|
|
#BPMCHANGE 97.05
|
|
0
|
|
#BPMCHANGE 82.03
|
|
0,
|
|
#BPMCHANGE 117.12
|
|
3,
|
|
#BPMCHANGE 119.4
|
|
3,
|
|
#BPMCHANGE 121.16
|
|
3,
|
|
#MEASURE 3/4
|
|
#BPMCHANGE 116.35
|
|
3,
|
|
#BPMCHANGE 96.87
|
|
708,
|
|
#BPMCHANGE 120
|
|
102121,
|
|
100011102000,
|
|
112121,
|
|
100011101000,
|
|
102121,
|
|
101011102000,
|
|
100111,
|
|
100020002220,
|
|
102121,
|
|
100011102000,
|
|
112121,
|
|
100011101000,
|
|
102121,
|
|
101011102000,
|
|
333030,
|
|
340,
|
|
100120101020,
|
|
100010111000,
|
|
100120101020,
|
|
100010222000,
|
|
100120101020,
|
|
100010111000,
|
|
100110101110,
|
|
100022102000,
|
|
100120102210,
|
|
221120221011,
|
|
100120102210,
|
|
221120221011,
|
|
100120102210,
|
|
201022102000,
|
|
100110111010,
|
|
1,
|
|
|
|
#GOGOSTART
|
|
323232,
|
|
323232,
|
|
304003,
|
|
411,
|
|
102210201022,
|
|
102010201020,
|
|
102210201022,
|
|
111,
|
|
323232,
|
|
323232,
|
|
304003,
|
|
411,
|
|
102210201122,
|
|
112210003000,
|
|
343,
|
|
430,
|
|
|
|
|
|
#END
|
|
|
|
|
|
COURSE:Hard
|
|
LEVEL:4
|
|
BALLOON:8
|
|
SCOREINIT:790
|
|
SCOREDIFF:210
|
|
|
|
|
|
#START
|
|
|
|
|
|
000000000000000000000000000000000000000000000000,
|
|
#BPMCHANGE 120.58
|
|
000000000000000000000000000000000000000000000000,
|
|
#BPMCHANGE 110.8
|
|
000000000000
|
|
#BPMCHANGE 107.1
|
|
000000000000
|
|
#BPMCHANGE 97.05
|
|
000000000000
|
|
#BPMCHANGE 82.03
|
|
000000000000,
|
|
#BPMCHANGE 117.12
|
|
300000000000000000000000000000000000000000000000,
|
|
#BPMCHANGE 119.4
|
|
300000000000000000000000000000000000000000000000,
|
|
#BPMCHANGE 121.16
|
|
300000000000000000000000000000000000000000000000,
|
|
#MEASURE 3/4
|
|
#BPMCHANGE 116.35
|
|
300000000000000000000000000000000000,
|
|
#BPMCHANGE 96.88
|
|
700000000000000000000800000000000000,
|
|
#BPMCHANGE 120
|
|
100000000000200000100000200000000000,
|
|
100000000000200000000000000000000000,
|
|
100000000000200000100000200000000000,
|
|
100000000000100100100000100000000000,
|
|
100000000000200000100000200000000000,
|
|
100000000000200000100000200000000000,
|
|
100000000000000000100000100000100000,
|
|
100000000000200000000000200200200000,
|
|
100000000000200000100000200000000000,
|
|
100000000000200000000000000000000000,
|
|
100000000000200000100000200000000000,
|
|
100000000000100100100000100000000000,
|
|
100000000000200000100000200000000000,
|
|
100000000000200000100000200000000000,
|
|
300000300000300000000000300000000000,
|
|
300000000000200000000000000000000000,
|
|
100000000000100000200000100000200000,
|
|
100000000000100000100100100000000000,
|
|
100000000000100000200000100000200000,
|
|
100000000000100000200200200000000000,
|
|
100000000000100000200000100000200000,
|
|
100000000000100000100100100000000000,
|
|
100000000000100000100000100000100000,
|
|
100000000000200200200000200000000000,
|
|
100000200000100000200000100000200000,
|
|
100000000000100000100100100000000000,
|
|
100000200000100000200000100000200000,
|
|
100000000000100000200200200000000000,
|
|
100000200000100000200000100000000000,
|
|
100000200000100000200000100000000000,
|
|
100000000000100000000000100000100000,
|
|
100000000000000000000000000000000000,
|
|
#GOGOSTART
|
|
300000000000300000000000300000000000,
|
|
300000000000300000000000300000000000,
|
|
300000000000400000000000000000300000,
|
|
400000000000100000000000100000000000,
|
|
100000200000100000200000100000200000,
|
|
100000000000100000000000100000000000,
|
|
100000200000100000200000100000200000,
|
|
100000000000100000000000100000000000,
|
|
300000000000300000000000300000000000,
|
|
300000000000300000000000300000000000,
|
|
300000000000400000000000000000300000,
|
|
400000000000100000000000100000000000,
|
|
100000200000100000200000100000200000,
|
|
100000000000100000000000300000000000,
|
|
300000000000400000000000300000000000,
|
|
400000000000300000000000000000000000,
|
|
#GOGOEND
|
|
|
|
|
|
#END
|
|
|
|
|
|
COURSE:Normal
|
|
LEVEL:3
|
|
BALLOON:6
|
|
SCOREINIT:760
|
|
SCOREDIFF:250
|
|
|
|
|
|
#START
|
|
|
|
|
|
000000000000000000000000000000000000000000000000,
|
|
#BPMCHANGE 120.58
|
|
000000000000000000000000000000000000000000000000,
|
|
#BPMCHANGE 110
|
|
000000000000
|
|
#BPMCHANGE 107.1
|
|
000000000000
|
|
#BPMCHANGE 97.05
|
|
000000000000
|
|
#BPMCHANGE 82.03
|
|
000000000000,
|
|
#BPMCHANGE 117.12
|
|
300000000000000000000000000000000000000000000000,
|
|
#BPMCHANGE 119.4
|
|
300000000000000000000000000000000000000000000000,
|
|
#BPMCHANGE 121.16
|
|
300000000000000000000000000000000000000000000000,
|
|
#MEASURE 3/4
|
|
#BPMCHANGE 115.35
|
|
300000000000000000000000000000000000,
|
|
#BPMCHANGE 97.57
|
|
700000000000000000008000000000000000,
|
|
#BPMCHANGE 120
|
|
100000000000100000100000100000000000,
|
|
100000000000200000000000000000000000,
|
|
100000000000100000100000100000000000,
|
|
100000000000200000000000000000000000,
|
|
100000000000100000100000100000000000,
|
|
100000000000100000100000100000000000,
|
|
100000000000000000000000100000000000,
|
|
100000000000000000000000000000000000,
|
|
100000000000100000100000100000000000,
|
|
100000000000200000000000000000000000,
|
|
100000000000100000100000100000000000,
|
|
100000000000200000000000000000000000,
|
|
100000000000100000100000100000000000,
|
|
100000000000200000000000200000000000,
|
|
300000000000000000000000300000000000,
|
|
300000000000000000000000000000000000,
|
|
100000000000100000000000200000000000,
|
|
100000000000100000000000000000000000,
|
|
100000000000100000000000200000000000,
|
|
100000000000100000000000000000000000,
|
|
100000000000100000000000200000000000,
|
|
100000000000100000000000000000000000,
|
|
100000000000100000000000100000000000,
|
|
100000000000000000000000000000000000,
|
|
100000000000100000100000200000000000,
|
|
100000000000100000000000000000000000,
|
|
100000000000100000100000200000000000,
|
|
100000000000100000000000000000000000,
|
|
100000000000100000100000200000000000,
|
|
100000000000100000100000200000000000,
|
|
100000000000000000000000100000000000,
|
|
100000000000000000000000000000000000,
|
|
#GOGOSTART
|
|
300000000000300000000000300000000000,
|
|
300000000000300000000000300000000000,
|
|
300000000000300000000000000000000000,
|
|
300000000000000000000000000000000000,
|
|
100000000000100000000000200000000000,
|
|
100000000000100000000000200000000000,
|
|
100000000000100000000000200000000000,
|
|
100000000000000000000000000000000000,
|
|
300000000000300000000000300000000000,
|
|
300000000000300000000000300000000000,
|
|
300000000000300000000000000000000000,
|
|
300000000000000000000000000000000000,
|
|
100000000000100000100000200000000000,
|
|
100000000000000000000000300000000000,
|
|
300000000000300000000000300000000000,
|
|
300000000000300000000000000000000000,
|
|
#GOGOEND
|
|
|
|
|
|
#END
|
|
|
|
|
|
COURSE:Easy
|
|
LEVEL:2
|
|
BALLOON:4
|
|
SCOREINIT:580
|
|
SCOREDIFF:220
|
|
|
|
|
|
#START
|
|
|
|
|
|
000000000000000000000000000000000000000000000000,
|
|
#BPMCHANGE 120.58
|
|
000000000000000000000000000000000000000000000000,
|
|
#BPMCHANGE 110
|
|
000000000000
|
|
#BPMCHANGE 107.1
|
|
000000000000
|
|
#BPMCHANGE 97.05
|
|
000000000000
|
|
#BPMCHANGE 82.03
|
|
000000000000,
|
|
#BPMCHANGE 117.12
|
|
300000000000000000000000000000000000000000000000,
|
|
#BPMCHANGE 119.4
|
|
300000000000000000000000000000000000000000000000,
|
|
#BPMCHANGE 121.16
|
|
300000000000000000000000000000000000000000000000,
|
|
#MEASURE 3/4
|
|
#BPMCHANGE 115.35
|
|
300000000000000000000000000000000000,
|
|
#BPMCHANGE 97.57
|
|
700000000000000000008000000000000000,
|
|
#BPMCHANGE 120
|
|
100000000000100000000000100000000000,
|
|
100000000000000000000000000000000000,
|
|
100000000000100000000000100000000000,
|
|
100000000000000000000000000000000000,
|
|
100000000000100000000000100000000000,
|
|
100000000000000000000000100000000000,
|
|
100000000000000000000000100000000000,
|
|
100000000000000000000000000000000000,
|
|
100000000000100000000000100000000000,
|
|
100000000000000000000000000000000000,
|
|
100000000000100000000000100000000000,
|
|
100000000000000000000000000000000000,
|
|
100000000000100000000000100000000000,
|
|
100000000000000000000000100000000000,
|
|
300000000000000000000000300000000000,
|
|
300000000000000000000000000000000000,
|
|
100000000000100000000000100000000000,
|
|
100000000000100000000000000000000000,
|
|
200000000000200000000000200000000000,
|
|
200000000000200000000000000000000000,
|
|
100000000000100000000000100000000000,
|
|
100000000000100000000000000000000000,
|
|
100000000000100000000000100000000000,
|
|
100000000000000000000000000000000000,
|
|
100000000000100000000000100000000000,
|
|
100000000000000000000000000000000000,
|
|
200000000000200000000000200000000000,
|
|
200000000000000000000000000000000000,
|
|
100000000000100000000000000000000000,
|
|
100000000000100000000000000000000000,
|
|
100000000000000000000000100000000000,
|
|
100000000000000000000000000000000000,
|
|
#GOGOSTART
|
|
300000000000300000000000300000000000,
|
|
300000000000300000000000300000000000,
|
|
300000000000000000000000000000000000,
|
|
300000000000000000000000000000000000,
|
|
100000000000100000000000100000000000,
|
|
100000000000000000000000000000000000,
|
|
100000000000100000000000100000000000,
|
|
100000000000000000000000000000000000,
|
|
300000000000300000000000300000000000,
|
|
300000000000300000000000300000000000,
|
|
300000000000000000000000000000000000,
|
|
300000000000000000000000000000000000,
|
|
100000000000100000000000100000000000,
|
|
100000000000000000000000300000000000,
|
|
300000000000300000000000300000000000,
|
|
300000000000000000000000000000000000,
|
|
#GOGOEND
|
|
|
|
|
|
#END
|
|
|