Files
ESE-ja-fix/02 Anime/Get Wild/Get Wild.tja
T
2023-06-15 19:15:39 -05:00

259 lines
10 KiB
Plaintext

//TJADB Project
TITLE:Get Wild
TITLEJA:Get Wild
SUBTITLE:--TM NETWORK/City Hunter
SUBTITLEJA:シティーハンター
BPM:133
WAVE:Get Wild.ogg
OFFSET:-3.644
DEMOSTART:61.162
COURSE:Oni
LEVEL:8
BALLOON:25
#START
000000000000000000000000000000000000000000000000,
000000000000000000000000000000000000000000000000,
200000000000200000000000200000000000000000200000,
200000000200000000200000200000000000000000200200,
200000000200000000200000200000200200000000200000,
200000000200000000200000200000000000300000000000,
100000000100000100200200100000200000100000200000,
100000000100000100200200100000200000100000200000,
100000000100000100200200100000200000100000200000,
100100200000100100200000100100100100200000200000,
100000000100000100200200100000200000100000200000,
100000000100000100200200100000200000100000200000,
100000000100000100200200100000200000100000200000,
100100200000100100200000100100100100200000100100,
200000100200000100200100100000100000200000100000,
100100100000200000100000100000000000000000100100,
200000100000000000100000100000200000200000100000,
100100200000100100200000100100100100200000100100,
200000100200000100200100100000100000200000100000,
100100100000200000100000100000000000000000100100,
200000100000100000200000200000100000200000100000,
100100200000100100200000100100100100200000200000,
100100200000100100200000100100200000100100200000,
100100200000100100200000100100100100200000100100,
100000200000100000200000100100200000100000200000,
100100200000200000100100200000100000100000200000,
100100200000100100200000100100200000100100200000,
100100200000100100200000100100100100200000100000,
100000200000100100100000100000100000200000100000,
300000000000300000000000300000000000300000000000,
700000000000000000000000000000000000000000000000,
000000000000000000000000000000000000800000100000,
300000000000300000000000300000000000000000100000,
100000000100200000100000100000000000200000100100,
200000200000100100200000200000100100100100200000,
100000200000000000200000100100100100200000100000,
300000000000300000000000300000000000000000100000,
100000000100200000100000100000000000200000100100,
200000200000100100200000200000100100100100200000,
100000200000000000200000100100100100200000100000,
300000000000300000000000300000000000000000100000,
100000000100200000100000100000000000200000100100,
200000200000100100200000200000100100100100200000,
100000200000000000200000100100100100200000100000,
300000000000300000000000300000000000000000100000,
100000000100200000100000100000000000200000100100,
200000200000100100200000400000400000100100200000,
100000200000000000200000300000000000000000000000,
#END
COURSE:Hard
LEVEL:3
BALLOON:15
SCOREINIT:840
SCOREDIFF:210
#START
000000000000000000000000000000000000000000000000,
000000000000000000000000000000000000000000000000,
100000000000100000000000100000000000000000000000,
100000000100000000200000200000000000000000000000,
100000000100000000200000200000000000000000000000,
100000000100000000200000400000000000000000000000,
200000000200000000200000100000100000100000000000,
200000000200000000200000100000100000100000000000,
200000000200000000200000100000100000100000000000,
200200200000200200200000100000100000100000000000,
200000000200000000200000100000100000100000000000,
200000000200000000200000100000100000100000000000,
200000000200000000200000100000100000100000000000,
200000000000000000000000400000000000400000000000,
100000000200000000100000100000000000000000100000,
100000000200000000100000100000000000000000100000,
100000100000000000100000100000200000200000100000,
100000000000000000000000100000100000300000000000,
100000000200000000100000100000000000000000100000,
100000000200000000100000100000000000000000100100,
100000100000100000100100100000100000100000200000,
100000000000000000000000100000100000300000000000,
200000000200000000100000200000000200000000100000,
200000000200000000100000100000000000000000000000,
100000200000100000200000100000100000200000200000,
100000000100000000200000200000000000000000100000,
200000000200000000100000200000000200000000100000,
200000000200000000100000100000000000100000100000,
100000000000000000000000000000000000000000000000,
300000000000300000000000300000000000300000000000,
700000000000000000000000000000000000000000000800,
000000000000000000000000000000000000000000100000,
100000000000100000000000100000000000000000100000,
200000000100000000100000300000000000000000100100,
100000000000100000000000100000100100100000000000,
100000000100000000100000300000000000000000100000,
100000000000100000000000100000000000000000100000,
200000000100000000100000300000000000000000100100,
100000000000100000000000100000100100100000000000,
100000000100000000100000300000000000000000200000,
200000000000200000000000200000000000000000100000,
200000000100000000100000300000000000000000100100,
100000000000100000200000100000100100100000200000,
100000000100000000100000300000000000000000200000,
200000000000200000000000200000000000000000100000,
200000000100000000100000300000000000000000100100,
100000000000100000200000100000100100100000200000,
100000000100000000100000300000000000000000000000,
#END
COURSE:Normal
LEVEL:4
BALLOON:15
SCOREINIT:1110
SCOREDIFF:330
#START
200000000000000000000000200000000000000000000000,
200000000000000000000000200000000000000000000000,
100000000000100000000000100000000000000000000000,
100000000100000000000000100000000000000000000000,
100000000000100000000000100000000000000000000000,
100000000100000000000000300000000000000000000000,
200000000000000000000000100000100000100000000000,
200000000000000000000000100000100000100000000000,
200000000000000000000000100000100000100000000000,
200000000000000000000000300000000000300000000000,
200000000000000000000000100000100000100000000000,
200000000000000000000000100000100000100000000000,
200000000000000000000000100000100000100000000000,
200000000000000000000000400000000000000000100000,
100000000100000000000000100000000000000000100000,
100000000100000000000000100000000000000000100000,
100000000000000000000000100000000000000000000000,
300000000000000000000000100000100000100000000000,
100000000100000000000000200000000000000000100000,
100000000100000000000000200000000000000000100000,
100000000000000000000000200000000000000000000000,
300000000000000000000000100000100000100000000000,
100000000200000000000000100000000200000000000000,
100000000200000000000000100000000000000000000000,
100000000000100000000000100000000000000000000000,
100000000100000000000000100000000000000000100000,
100000000200000000000000100000000200000000000000,
100000000200000000000000100000000000100000100000,
100000000000000000000000000000000000000000000000,
300000000000300000000000300000000000300000000000,
700000000000000000000000000000000000000000000800,
000000000000000000000000000000000000000000100000,
100000000000100000000000100000000000000000100000,
100000000100000000000000100000000000000000100000,
100000000000100000000000100000000000000000100000,
100000000100000000000000100000000000000000100000,
100000000000100000000000100000000000000000100000,
100000000100000000000000100000000000000000100000,
100000000000100000000000100000000000000000100000,
100000000100000000000000300000000000000000200000,
200000000000200000000000200000000000000000100000,
100000000100000000000000100000000000000000100000,
100000000000200000000000100000000000200000000000,
100000000000200000000000300000000000000000200000,
200000000000200000000000200000000000000000100000,
100000000100000000000000100000000000000000100000,
100000000000200000000000100000000000200000000000,
100000000000200000000000300000000000000000000000,
#END
COURSE:Easy
LEVEL:3
SCOREINIT:1250
SCOREDIFF:500
#START
100000000000000000000000000000000000000000000000,
100000000000000000000000000000000000000000000000,
100000000000000000000000000000000000000000000000,
100000000000000000000000000000000000000000000000,
100000000000000000000000100000000000000000000000,
100000000000000000000000300000000000000000000000,
000000000000000000000000100000100000100000000000,
000000000000000000000000100000100000100000000000,
000000000000000000000000100000100000100000000000,
000000000000000000000000300000000000300000000000,
000000000000000000000000100000100000100000000000,
000000000000000000000000100000100000100000000000,
000000000000000000000000100000100000100000000000,
000000000000000000000000300000000000000000000000,
100000000000100000000000000000000000000000000000,
100000000000100000000000000000000000000000000000,
100000000000000000000000100000000000000000000000,
300000000000000000000000000000000000000000000000,
100000000000100000000000000000000000000000000000,
100000000000100000000000000000000000000000000000,
100000000000000000000000200000000000000000000000,
300000000000000000000000000000000000000000000000,
100000000000200000000000100000000000000000000000,
100000000000200000000000100000000000000000000000,
100000000000000000000000100000000000000000000000,
100000000000000000000000100000000000000000000000,
100000000000200000000000100000000000000000000000,
100000000000200000000000100000000000000000000000,
100000000000000000000000000000000000000000000000,
100000000000100000000000100000000000100000000000,
500000000000000000000000000000000000000000000000,
000000000000000000800000000000000000000000000000,
100000000000100000000000100000000000000000000000,
100000000000100000000000100000000000000000000000,
100000000000100000000000100000000000000000000000,
100000000000000000000000300000000000000000000000,
100000000000100000000000100000000000000000000000,
100000000000100000000000100000000000000000000000,
100000000000100000000000100000000000000000000000,
100000000000000000000000300000000000000000000000,
200000000000200000000000200000000000000000000000,
100000000000100000000000100000000000000000000000,
200000000000200000000000200000000000000000000000,
100000000000000000000000300000000000000000000000,
200000000000200000000000200000000000000000000000,
100000000000100000000000100000000000000000000000,
200000000000200000000000200000000000000000000000,
100000000000000000000000300000000000000000000000,
#END