Files
ESE-ja-fix/02 Anime/Hacking to the Gate/Hacking to the Gate.tja
T
2023-06-15 19:15:39 -05:00

322 lines
12 KiB
Plaintext

//TJADB Project
TITLE:Hacking to the Gate
TITLEJA:Hacking to the Gate
SUBTITLE:--Chiyomaru Shikura/Steins;Gate
SUBTITLEJA:TVアニメ「シュタインズ・ゲート」より
BPM:161
WAVE:Hacking to the Gate.ogg
OFFSET:-1.783
DEMOSTART:62.893
COURSE:Oni
LEVEL:6
SCOREINIT:700
SCOREDIFF:208
#START
#GOGOSTART
300000000000000000000000000000000000000000000000,
300000000000000000000000000000000000000000000000,
300000000000000000000000000000000000000000000000,
300000000000300000000000100000100000100000100100,
100000100000200000100000200000100000200000100100,
100000100000200000100000200000100000200000100100,
100000100000200000100100100000100000200000100100,
100000100000200000100000200000200000200000000000,
#GOGOEND
100000100000200000200000100000100000200000100000,
100000100000200000200000100000200000200000100000,
100000100000200000200000100000100000200000100000,
100000100000200000200000100000200000200000100000,
100000100000200000200000100000100000200000100000,
100000100000200000200000100000200000200000000000,
300000300000300000300000000000200000200000200000,
000000000000000000300000000000300000000000000000,
100000100000200000200000100000100000200000100000,
100000100000200000200000100000200000200000100000,
100000100000200000200000100000100000200000100000,
100000100000200000200000100000200000200000100000,
100000100000200000200000100000100000200000100000,
100000100000200000200000100000200000200000000000,
300000300000000000300000000000300000300000400000,
000000400000400000000000300000300000000000100000,
000000000000100000000000200000200000000000100000,
000000000000100000000000200000000000000000000000,
100000000000100000000000200000200000000000100000,
000000000000100000000000200000000000200000100000,
000000100000200000000000100000100000200000100000,
000000100000200000000000100000100000200000100000,
000000100000200000100000000000100000200000000000,
300000300000300000000000400000000000000000100000,
000000000000100000000000200000200000000000100000,
000000000000100000000000200000000000000000000000,
100000000000100000000000200000200000000000100000,
000000000000100000000000200000000000200000100000,
000000100000200000000000100000100000200000100000,
000000100000200000100000000000100100100000300000,
000000100100100000300000000000100100100000300000,
000000100100100000300000000000300000300000000000,
400000000000000000000000000000000000000000000000,
#GOGOSTART
100000100100100000100000000000100000200000100000,
000000100000200000100100100000100000200000100000,
000000100000200000100100100000200000200000100100,
100000100000200000100100200000200000200000000000,
100000100100100000100000000000100000200000100000,
000000100000200000100100100000100000200000100100,
100000200000200000100100100000100000200000100000,
000000000000300000300000300000300000300000000000,
100000100100100000100000000000100000200000100000,
000000100000200000100100100000100000200000100000,
000000100000200000100100100000200000200000100100,
100000100000200000100100200000200000200000000000,
100000100100100000100000000000100000200000100000,
000000100000200000100100100000100000200000100000,
000000000000300000300000000000400000000000300000,
000000300000600000000000000000000000000008000000,
300000300000000000300000000000300000000000400000,
#GOGOEND
#END
COURSE:Hard
LEVEL:3
BALLOON:7,7
SCOREINIT:790
SCOREDIFF:248
#START
#GOGOSTART
300000000000000000000000000000000000000000000000,
300000000000000000000000000000000000000000000000,
300000000000000000000000000000000000000000000000,
300000000000300000000000100000100000100000000000,
100000000000200000000000100000100000200000000000,
100000000000200000000000100000100000200000000000,
100000100000200000000000100000100000200000000000,
500000000000000000000000000000000000000008000000,
#GOGOEND
100000000000200000200000000000200000200000000000,
100000000000200000000000100000100000200000000000,
100000000000200000200000000000200000200000000000,
100000000000200000000000100000100000200000000000,
100000000000200000100000000000100000200000000000,
100000000000200000100000000000100000200000000000,
700000000000000000000000000000000000000000000000,
000000000000000000000008000000000000000000000000,
100000000000200000200000000000200000200000000000,
100000000000200000000000100000100000200000000000,
100000000000200000200000000000200000200000000000,
100000000000200000000000100000100000200000000000,
100000000000200000100000000000100000200000000000,
100000000000200000100000000000100000200000000000,
700000000000000000000000000000000000000000000000,
000000000000000000000008000000000000000000100000,
000000000000100000000000200000200000000000100000,
000000000000100000000000200000000000000000000000,
100000000000100000000000200000200000000000100000,
000000000000100000000000200000000000000000000000,
100000100000200000000000100000000000200000100000,
000000100000200000000000100000100000200000000000,
100000000000200000000000100000100000200000000000,
300000300000300000000000000000000000000000100000,
000000000000100000000000200000200000000000100000,
000000000000100000000000200000000000000000000000,
100000000000100000000000200000200000000000100000,
000000000000100000000000200000000000000000000000,
100000100000200000000000100000000000200000100000,
000000100000200000000000100000000000000000300000,
000000000000000000300000000000000000000000300000,
000000000000600000000000000000000000000000000008,
000000000000000000000000000000000000000000000000,
#GOGOSTART
100000100000100000100000000000100000200000100000,
000000100000200000000000100000100000200000000000,
100000100000200000000000100100100000000000500000,
000000000000000000000000000000000008000000000000,
100000100000100000100000000000100000200000100000,
000000100000200000000000100000100000200000000000,
100000100000200000000000100100100000000000300000,
000000000000300000300000300000300000300000000000,
100000100000100000100000000000100000200000100000,
000000100000200000000000100000100000200000000000,
100000100000200000000000100100100000000000500000,
000000000000000000000000000000000008000000000000,
100000100000100000100000000000100000200000100000,
000000100000200000000000100000100000200000100000,
000000000000300000300000000000300000000000600000,
000000000000000000000000000000000008000000000000,
300000300000000000300000000000300000000000300000,
#GOGOEND
#END
COURSE:Normal
LEVEL:2
BALLOON:7,7,2,2,2,6,6
SCOREINIT:1050
SCOREDIFF:440
#START
#GOGOSTART
300000000000000000000000000000000000000000000000,
300000000000000000000000000000000000000000000000,
300000000000000000000000000000000000000000000000,
300000000000000000000000000000000000000000000000,
100000000000100000000000100000000000000000000000,
100000000000100000000000100000000000000000000000,
100000000000100000000000100000000000100000000000,
500000000000000000000000800000000000000000000000,
#GOGOEND
100000000000000000000000100000000000100000000000,
100000000000000000000000000000000000000000000000,
100000000000000000000000100000000000100000000000,
100000000000000000000000000000000000000000000000,
100000000000100000000000100000000000000000000000,
200000000000200000000000200000000000000000000000,
700000000000000000000000000000000000000000800000,
000000000000000000000000000000000000000000000000,
100000000000000000000000100000000000100000000000,
100000000000000000000000000000000000000000000000,
100000000000000000000000100000000000100000000000,
100000000000000000000000000000000000000000000000,
100000000000100000000000100000000000000000000000,
200000000000200000000000200000000000000000000000,
700000000000000000000000000000000000000000800000,
000000000000000000000000000000000000000000100000,
000000000000000000000000100000000000000000000000,
100000000000100000000000200000000000000000000000,
100000000000000000000000100000000000000000000000,
100000000000100000000000200000000000000000000000,
100000000000100000000000000000000000200000000000,
100000000000100000000000000000000000200000000000,
100000000000100000000000100000000000000000000000,
300000000000000000000000000000000000000000100000,
000000000000000000000000100000000000000000000000,
100000000000100000000000200000000000000000000000,
100000000000000000000000100000000000000000000000,
100000000000100000000000200000000000000000000000,
100000000000100000000000000000000000200000000000,
100000000000100000000000000000000000000000700000,
000000000000000000000000000000000000000000000000,
000200000800000000700000000000000800000000700000,
000000000800000000500000000000000000000000000800,
000000000000000000000000000000000000000000000000,
#GOGOSTART
100000000000100000100000000000100000100000100000,
000000000000100000000000200000000000000000000000,
100000100000100000000000100000000000000000700000,
000000000000000000000000000000800000000000000000,
100000000000100000100000000000100000100000100000,
000000000000100000000000200000000000000000000000,
100000100000100000000000100000000000000000700000,
000000000000000000000000000000800000000000000000,
100000000000100000100000000000100000100000100000,
000000000000200000000000200000000000000000000000,
100000100000100000000000200000000000000000500000,
000000000000000000000000800000000000000000000000,
100000000000100000100000000000100000100000100000,
000000000000200000000000200000000000000000000000,
100000100000100000000000200000000000000000500000,
000000000000000000000000800000000000000000000000,
600000000000000000000000000000000000800000000000,
#GOGOEND
#END
COURSE:Easy
LEVEL:2
BALLOON:6,6,2,2,2
SCOREINIT:890
SCOREDIFF:548
#START
#GOGOSTART
300000000000000000000000000000000000000000000000,
300000000000000000000000000000000000000000000000,
300000000000000000000000000000000000000000000000,
300000000000000000000000000000000000000000000000,
100000000000000000000000100000000000000000000000,
100000000000100000000000100000000000000000000000,
100000000000100000000000100000000000000000000000,
500000000000000000000000800000000000000000000000,
#GOGOEND
100000000000000000000000100000000000000000000000,
100000000000000000000000000000000000000000000000,
100000000000000000000000100000000000000000000000,
100000000000000000000000000000000000000000000000,
100000000000000000000000100000000000000000000000,
200000000000000000000000200000000000000000000000,
700000000000000000000000000000000000000000800000,
000000000000000000000000000000000000000000000000,
100000000000000000000000100000000000000000000000,
100000000000000000000000000000000000000000000000,
100000000000000000000000100000000000000000000000,
100000000000000000000000000000000000000000000000,
100000000000000000000000100000000000000000000000,
200000000000000000000000200000000000000000000000,
700000000000000000000000000000000000000000800000,
000000000000000000000000000000000000000000100000,
000000000000000000000000100000000000100000000000,
100000000000000000000000000000000000000000000000,
100000000000000000000000100000000000100000000000,
100000000000000000000000000000000000000000000000,
100000000000100000000000000000000000000000000000,
100000000000100000000000000000000000000000000000,
100000000000100000000000100000000000000000000000,
300000000000000000000000000000000000000000100000,
000000000000000000000000100000000000100000000000,
100000000000000000000000000000000000000000000000,
100000000000000000000000100000000000100000000000,
100000000000000000000000000000000000000000000000,
100000000000100000000000000000000000000000000000,
100000000000100000000000000000000000000000700000,
000000000000000000000000000000000000000000000000,
000200000800000000700000000000000800000000700000,
000000000800000000500000000000000000000000000800,
000000000000000000000000000000000000000000000000,
#GOGOSTART
300000000000300000000000000000000000000000000000,
100000000000100000000000100000000000000000000000,
200000000000200000000000200000000000000000000000,
100000000000000000000000100000000000000000000000,
300000000000300000000000000000000000000000000000,
100000000000100000000000100000000000000000000000,
200000000000200000000000200000000000000000000000,
100000000000000000000000100000000000000000000000,
300000000000300000000000000000000000000000000000,
100000000000100000000000100000000000000000000000,
200000000000200000000000200000000000000000500000,
000000000000000000000000800000000000000000000000,
300000000000300000000000000000000000000000000000,
100000000000100000000000100000000000000000000000,
200000000000200000000000200000000000000000500000,
000000000000000000000000000008000000000000000000,
600000000000000000000000000000000000000008000000,
#GOGOEND
#END