Files
ESE-ja-fix/02 Anime/Hamtaro Tottokou Uta 2005 -Short Version-/Hamtaro Tottokou Uta 2005 -Short Version-.tja
T
2023-06-15 19:15:39 -05:00

238 lines
7.6 KiB
Plaintext

//TJADB Project
TITLE:Hamtaro Tottokou Uta 2005 -Short Version-
TITLEJA:ハム太郎とっとこうた2005 -Short Version-
SUBTITLE:--Ham-chanzu/Hamtaro Tottokou
SUBTITLEJA:とっとこハム太郎はむはむぱらだいちゅ!
BPM:140.8
WAVE:Hamtaro Tottokou Uta 2005 -Short Version-.ogg
OFFSET:-2.010
DEMOSTART:35.643
COURSE:Oni
LEVEL:5
SCOREINIT:1010
SCOREDIFF:270
#START
100000100100000100100000100000000200000000100000,
#BPMCHANGE 138.7
100000000200000000100000200000000000000000000000,
#BPMCHANGE 140
100000100100000100100000100000000100000000200000,
100000000200000000100000200000000000000000000000,
100000100100000100100000100000000200000000100000,
100000000200000000100000200000000000000000000000,
100000100100000100100000100000100100000100100000,
100000000200000000100000200000100100100000100000,
100000200200200000000000100100100000100000200000,
100000200200200000200000100100100000200000000000,
100000200200200000000000100100100000100000200000,
100000200200200000200000100100100000200000000000,
#GOGOSTART
100100100000200000100000100100100000200000000000,
200200100000100000200000200200100000100000000000,
100100100000200000100000100100100000200000000000,
500000000000000000000008000000200200200200200200,
100000100000200000100100100000100000200000000000,
100000200000100000100000000000000000000000000000,
#GOGOEND
100000000100000000100000100000000100000000100000,
200200200000200200200000200000200200200000200000,
100000200200200000200000100100100000100000200000,
100000200200200000200000100100100000200000200000,
100000200200200000200000100100100000100000200000,
100000200200200000200000100100100000200000000000,
#GOGOSTART
100100100000200000100000100100100000200000100000,
200200100000100000200000200200100000100000200000,
100100100000200000100000100100100000200000000000,
200000100000200000100000200000200200200200200200,
100000100000200000100100100000100000200000000000,
100000200000100000100000000000000000000000000000,
#GOGOEND
100000000100100000100000100000000100100000100000,
100000000200000000100000200000200200200200200200,
100000000000000000000000000000000000000000000000,
#END
COURSE:Hard
LEVEL:4
SCOREINIT:1080
SCOREDIFF:320
#START
300000000000100000000000100000000000000000000000,
#BPMCHANGE 138.7
100000000100000000100000100000000000000000000000,
#BPMCHANGE 140
300000000000100000000000100000000000000000000000,
100000000100000000100000100000000000000000000000,
300000000000100000000000100000000000100000000000,
100000000100000000100000100000000000000000000000,
100000000000200000000000100000000000200000000000,
100000000000200000000000100000100000100000100000,
100000200200200000000000100000000000100000100000,
100000000000100000100000000000100000100000100000,
100000200200200000000000100000000000100000100000,
100000000000100000100000000000200200200000000000,
#GOGOSTART
100000000000000000100000100000000000100000100000,
100000000000200000000000200200200000200000000000,
100000000000000000100000100000000000100000100000,
100000000000200000000000200200200000200000000000,
100000000000200000000000100000100000100000100000,
100000000000100000100000000000000000000000000000,
#GOGOEND
100000100100100000100000100000100100100000100000,
100000100100100000100000100000100100100000100000,
100000200200200000000000100000200000100000200000,
100000000000100000100000000000100000100000100000,
100000200200200000000000100000200000100000200000,
100000000000100000100000000000200200200000000000,
#GOGOSTART
100000000000000000100000100000000000100000100000,
100000000000200000000000200200200000200000200000,
100000000000000000100000100000000000100000100000,
100000000000200000000000200000200200200000200000,
100000000000200000000000100000100000100000100000,
100000000000100000100000000000000000000000000000,
#GOGOEND
100000100100100000200000100000100100100000200000,
100000100100100000200000100000100100100000200000,
300000000000000000000000000000000000000000000000,
#END
COURSE:Normal
LEVEL:2
SCOREINIT:1350
SCOREDIFF:570
#START
300000000000000000000000100000000000000000000000,
#BPMCHANGE 138.7
100000000000000000000000100000000000000000000000,
#BPMCHANGE 140
300000000000000000000000100000000000000000000000,
100000000000000000000000100000000000000000000000,
300000000000100000000000100000000000000000000000,
100000000000100000000000100000000000000000000000,
100000000000200000000000100000000000200000000000,
100000000000100000000000100000000000000000000000,
100000000000000000000000100000000000100000000000,
100000000000100000100000000000100000100000000000,
100000000000000000000000100000000000100000000000,
100000000000100000100000000000000000000000000000,
#GOGOSTART
100000000000000000100000100000000000100000000000,
500000000000000000000000000008000000000000000000,
100000000000000000100000100000000000100000000000,
500000000000000000000000000008000000000000000000,
100000000000000000000000100000000000100000000000,
100000000000100000100000000000000000000000000000,
#GOGOEND
100000000000100000000000100000100000100000000000,
100000000000100000000000100000100000100000000000,
100000000000000000000000100000000000100000000000,
100000000000100000100000000000100000100000000000,
100000000000000000000000100000000000100000000000,
100000000000100000100000000000000000000000000000,
#GOGOSTART
100000000000000000100000100000000000100000000000,
500000000000000000000000000008000000000000000000,
100000000000000000100000100000000000100000000000,
500000000000000000000000000008000000000000000000,
100000000000000000000000100000000000100000000000,
100000000000100000100000000000000000000000000000,
#GOGOEND
100000100000100000000000100000100000100000000000,
100000100000100000000000100000100000100000000000,
300000000000000000000000000000000000000000000000,
#END
COURSE:Easy
LEVEL:2
SCOREINIT:1380
SCOREDIFF:910
#START
300000000000000000000000000000000000000000000000,
#BPMCHANGE 138.7
100000000000000000000000000000000000000000000000,
#BPMCHANGE 140
300000000000000000000000000000000000000000000000,
100000000000000000000000000000000000000000000000,
300000000000000000000000000000000000000000000000,
100000000000000000000000000000000000000000000000,
100000000000000000000000100000000000000000000000,
100000000000000000000000100000000000000000000000,
100000000000000000000000100000000000100000000000,
100000000000000000300000000000000000000000000000,
100000000000000000000000100000000000100000000000,
100000000000000000300000000000000000000000000000,
#GOGOSTART
100000000000000000000000100000000000100000000000,
500000000000000000000000000008000000000000000000,
100000000000000000000000100000000000100000000000,
500000000000000000000000000008000000000000000000,
100000000000000000000000100000000000100000000000,
100000000000000000300000000000000000000000000000,
#GOGOEND
100000000000000000000000200000000000000000000000,
100000000000000000000000200000000000000000000000,
100000000000000000000000100000000000100000000000,
100000000000000000300000000000000000000000000000,
100000000000000000000000100000000000100000000000,
100000000000000000300000000000000000000000000000,
#GOGOSTART
100000000000000000000000100000000000100000000000,
500000000000000000000000000008000000000000000000,
100000000000000000000000100000000000100000000000,
500000000000000000000000000008000000000000000000,
100000000000000000000000100000000000100000000000,
100000000000000000300000000000000000000000000000,
#GOGOEND
100000000000100000000000200000000000000000000000,
100000000000100000000000200000000000000000000000,
300000000000000000000000000000000000000000000000,
#END