Files
ESE-ja-fix/02 Anime/Hamtaro Tottokou Uta 2005/Hamtaro Tottokou Uta 2005.tja
T
2023-06-15 19:15:39 -05:00

296 lines
9.3 KiB
Plaintext

//TJADB Project
TITLE:Hamtaro Tottokou Uta 2005
TITLEJA:ハム太郎とっとこうた2005
SUBTITLE:--Ham-chanzu/Hamtaro Tottokou
SUBTITLEJA:とっとこハム太郎はむはむぱらだいちゅ!
BPM:140
WAVE:Hamtaro Tottokou Uta 2005.ogg
OFFSET:-3.690
DEMOSTART:33.896
COURSE:Oni
LEVEL:6
BALLOON:9
SCOREINIT:710
SCOREDIFF:198
#START
,
7008,
1011011010020010,
1002001020000000,
1011011010010020,
1002001020000000,
1011011010020010,
1002001020000000,
1011011010110110,
1002001020111010,
1022200011101020,
1022202011102000,
1022200011101020,
1022202011102000,
#GOGOSTART
1110201011102000,
2210102022101000,
1110201011102000,
500000000000000000000008000000200200200200200200,
1010201110102000,
12110000,
#GOGOEND
1001001010010010,
2220222020222020,
102220201110102,
1022202011102020,
1022202011101020,
1022202011102000,
#GOGOSTART
1110201011102010,
2210102022101020,
1110201011102000,
2010201020222222,
1010201110102000,
12110000,
#GOGOEND
1001101010011010,
1002001020222222,
1022202011101020,
1022202011102020,
1022202011101020,
1022202011102020,
#GOGOSTART
1110201011102010,
2210102022101020,
1110201011102010,
2220222020222222,
1010201110102000,
12110000,
1001001010010010,
2210221022222222,
1011011010010020,
1011011010020010,
1011011010010020,
3,
#END
COURSE:Hard
LEVEL:6
BALLOON:8
SCOREINIT:810
SCOREDIFF:250
#START
000000000000000000000000000000000000000000000000,
700000000000000000000000000000000080000000000000,
300000000000100000000000100000000000000000000000,
100000000100000000100000100000000000000000000000,
300000000000100000000000100000000000000000000000,
100000000100000000100000100000000000000000000000,
300000000000100000000000100000000000100000000000,
100000000100000000100000100000000000000000000000,
100000000000200000000000100000000000200000000000,
100000000000200000000000100000100000100000100000,
100000200200200000000000100000000000100000100000,
100000000000100000100000000000100000100000100000,
100000200200200000000000100000000000100000100000,
100000000000100000100000000000200200200000000000,
#GOGOSTART
100000000000000000100000100000000000100000100000,
100000000000200000000000200200200000200000000000,
100000000000000000100000100000000000100000100000,
100000000000200000000000200200200000200000000000,
100000000000200000000000100000100000100000100000,
100000000000100000100000000000000000000000000000,
#GOGOEND
100000100100100000100000100000100100100000100000,
100000100100100000100000100000100100100000100000,
100000200200200000000000100000200000100000200000,
100000000000100000100000000000100000100000100000,
100000200200200000000000100000200000100000200000,
100000000000100000100000000000200200200000000000,
#GOGOSTART
100000000000000000100000100000000000100000100000,
100000000000200000000000200200200000200000200000,
100000000000000000100000100000000000100000100000,
100000000000200000000000200000200200200000200000,
100000000000200000000000100000100000100000100000,
100000000000100000100000000000000000000000000000,
#GOGOEND
100000100100100000200000100000100100100000200000,
100000100100100000200000100000100100100000200000,
100000200200200000200000100000200200200000200000,
100000000000100000100000000000100000100000100000,
100000200200200000200000100000200200200000200000,
100000000000100000100000000000200200200000000000,
#GOGOSTART
100000000000200000100000100000000000200000100000,
100000000000200000000000200200200000200000200000,
100000000000200000100000100000000000200000100000,
100000000000200000000000200000200200200000200000,
100000000000200000000000100000100000200000200000,
100000000000100000100000000000000000000000000000,
100000100100100000200000100000100100100000200000,
100000100100100000200000100000000000000000000000,
100000000100000000100000100000200200200000200000,
100000000100000000100000100000200200200000200000,
100000000100000000100000200000000200000000200000,
300000000000000000000000000000000000000000000000,
#GOGOEND
#END
COURSE:Normal
LEVEL:3
BALLOON:6
SCOREINIT:990
SCOREDIFF:408
#START
000000000000000000000000000000000000000000000000,
700000000000000000000000000000000080000000000000,
300000000000000000000000100000000000000000000000,
100000000000000000000000100000000000000000000000,
300000000000000000000000100000000000000000000000,
100000000000000000000000100000000000000000000000,
300000000000100000000000100000000000000000000000,
100000000000100000000000100000000000000000000000,
100000000000200000000000100000000000200000000000,
100000000000100000000000100000000000000000000000,
100000000000000000000000100000000000100000000000,
100000000000100000100000000000100000100000000000,
100000000000000000000000100000000000100000000000,
100000000000100000100000000000000000000000000000,
#GOGOSTART
100000000000000000100000100000000000100000000000,
500000000000000000000000000080000000000000000000,
100000000000000000100000100000000000100000000000,
500000000000000000000000000080000000000000000000,
100000000000000000000000100000000000100000000000,
100000000000100000100000000000000000000000000000,
#GOGOEND
100000000000100000000000100000100000100000000000,
100000000000100000000000100000100000100000000000,
100000000000000000000000100000000000100000000000,
100000000000100000100000000000100000100000000000,
100000000000000000000000100000000000100000000000,
100000000000100000100000000000000000000000000000,
#GOGOSTART
100000000000000000100000100000000000100000000000,
500000000000000000000000000080000000000000000000,
100000000000000000100000100000000000100000000000,
500000000000000000000000000080000000000000000000,
100000000000000000000000100000000000100000000000,
100000000000100000100000000000000000000000000000,
#GOGOEND
100000100000100000000000100000100000100000000000,
100000100000100000000000100000100000100000000000,
100000000000000000000000100000000000100000000000,
100000000000100000100000000000100000100000000000,
100000000000000000000000100000000000100000000000,
100000000000100000100000000000000000000000000000,
#GOGOSTART
100000000000000000100000100000000000100000000000,
500000000000000000000000000080000000000000000000,
100000000000000000100000100000000000100000000000,
500000000000000000000000000080000000000000000000,
100000000000000000000000100000000000100000000000,
100000000000100000100000000000000000000000000000,
100000100000100000000000100000100000100000000000,
100000100000100000000000100000100000100000000000,
100000000000100000000000200000000000000000000000,
100000000000100000000000200000000000000000000000,
100000000000100000000000200000000000100000000000,
300000000000000000000000000000000000000000000000,
#GOGOEND
#END
COURSE:Easy
LEVEL:2
SCOREINIT:920
SCOREDIFF:668
#START
000000000000000000000000000000000000000000000000,
500000000000000000000000000000000080000000000000,
300000000000000000000000000000000000000000000000,
100000000000000000000000000000000000000000000000,
300000000000000000000000000000000000000000000000,
100000000000000000000000000000000000000000000000,
300000000000000000000000000000000000000000000000,
100000000000000000000000000000000000000000000000,
100000000000000000000000100000000000000000000000,
100000000000000000000000100000000000000000000000,
100000000000000000000000100000000000100000000000,
100000000000000000300000000000000000000000000000,
100000000000000000000000100000000000100000000000,
100000000000000000300000000000000000000000000000,
#GOGOSTART
100000000000000000000000100000000000100000000000,
500000000000000000000000000080000000000000000000,
100000000000000000000000100000000000100000000000,
500000000000000000000000000080000000000000000000,
100000000000000000000000100000000000100000000000,
100000000000000000300000000000000000000000000000,
#GOGOEND
100000000000000000000000200000000000000000000000,
100000000000000000000000200000000000000000000000,
100000000000000000000000100000000000100000000000,
100000000000000000300000000000000000000000000000,
100000000000000000000000100000000000100000000000,
100000000000000000300000000000000000000000000000,
#GOGOSTART
100000000000000000000000100000000000100000000000,
500000000000000000000000000080000000000000000000,
100000000000000000000000100000000000100000000000,
500000000000000000000000000080000000000000000000,
100000000000000000000000100000000000100000000000,
100000000000000000300000000000000000000000000000,
#GOGOEND
100000000000100000000000200000000000000000000000,
100000000000100000000000200000000000000000000000,
100000000000000000000000100000000000100000000000,
100000000000000000300000000000000000000000000000,
100000000000000000000000100000000000100000000000,
100000000000000000300000000000000000000000000000,
#GOGOSTART
100000000000000000000000100000000000100000000000,
500000000000000000000000000080000000000000000000,
100000000000000000000000100000000000100000000000,
500000000000000000000000000080000000000000000000,
100000000000000000000000100000000000100000000000,
100000000000000000300000000000000000000000000000,
100000000000000000000000200000000000000000000000,
100000000000000000000000200000000000000000000000,
100000000000100000000000100000000000000000000000,
100000000000100000000000200000000000000000000000,
500000000000000000000000000000000080000000000000,
300000000000000000000000000000000000000000000000,
#GOGOEND
#END