Files
ESE-ja-fix/02 Anime/Happiness Charge Pretty Cure! WOW!/Happiness Charge Pretty Cure! WOW!.tja
T
2023-06-15 19:15:39 -05:00

350 lines
14 KiB
Plaintext

//TJADB Project
TITLE:Happiness Charge Pretty Cure! WOW!
TITLEJA:ハピネスチャージプリキュア!WOW!
SUBTITLE:--Sayaka Nakaya/Happiness Charge Pretty Cure
BPM:175
WAVE:Happiness Charge Pretty Cure! WOW!.ogg
OFFSET:-1.679
DEMOSTART:14.014
COURSE:Oni
LEVEL:5
SCOREINIT:830
SCOREDIFF:245
#START
000000000000000000000000000000000000000000000000,
100000000000100000000000100000000000100000100000,
000000200000200000200000300000000400000000400000,
100000000000100000000000100000000000000000200000,
000000200000200000200000000000400000000000000000,
100000000000200000000000100000200000000000100000,
000000200000200000200200200000200000200000000000,
100000100000200000200000100000200000000000100000,
000000200000200000000000300000000000400000000000,
#GOGOSTART
100000000000200000000000100000200000000000100100,
100000100000200000100000200000000000200000000000,
100000000000200000000000100000200000000000100100,
100000100000200000000000600000000008000000000000,
100000000000200000000000100000200000000000100100,
100000100000200000100000200000000000200000000000,
100000000000200000000000100000200000000000100100,
100000100000200000000000600000000008000000000000,
100000000000500000000000000000000008000000000000,
100100100000000000500000000000000008000000000000,
#GOGOEND
100000000000200000000000100000200000000000100000,
100000000000200000000000100000200000000000100000,
100000000000200000000000100000200000000000100000,
000000200000000000000000200000200000000000000000,
100000000000100000000000100000000000100000000000,
100000200000100000200000000000200000100000200000,
100000000000400000000000000000000000400000000000,
000000000000200200000000200200000000000000000000,
100000000000200000000000100000200000000000200000,
100000000000200000000000100000200000000000200000,
100000000000200000000000100000200000000000200000,
100000000000000000200000000000200000200000000000,
100000200000100000200000000000200200200000000000,
200000100000200000100000000000200200200000000000,
100000100000200000200000100000100000000000500000,
000000000000000000000000000000000000000000000008,
000000100000100000200000200000200200200000000000,
100000000000000000100000100000000000200000000000,
100000000000000000100000100000000000200000000000,
100000000000000000100000100000000000200000000000,
100000000000000000100000100000200000000000000000,
200000200000200000000000100100100000100000000000,
200000200000200000200000100100100000100000000000,
000000000000100000000000100000000000200000000000,
100000000000100000000000200000200200200000500000,
000000000000000000000000000000000008000000000000,
100000200000100000200000000000000000000000000000,
200000100000200000100000000000000000000000000000,
100000200000100000200000100000200000100000200000,
100000100100100000500000000000000000000008000000,
100100100000000000100100100000000000100100100000,
000000100000100000200000200000000000200000000000,
200200200000100000200000000000000000300000000000,
#GOGOSTART
100000000000200000000000100000200000000000100100,
100000100000200000100000200000000000200000000000,
100100100000200000000000100000200000000000100000,
000000100100100000100000300000000000300000000000,
100000000000200000000000100000200000000000100100,
100000100000200000100000200000000000200000000000,
100100100000200000000000100000200000000000100000,
000000100100100000100000300000000000300000000000,
100000000000500000000000000000000008000000000000,
100100100000000000500000000000000008000000000000,
300000300000300000400000000000400000000000400000,
300000300000300000400000000000000000000000000000,
#GOGOEND
#END
COURSE:Hard
LEVEL:4
BALLOON:8
SCOREINIT:780
SCOREDIFF:243
#START
000000000000000000000000000000000000000000000000,
100000000000100000000000100000000000100000100000,
000000200000200000000000300000000400000000400000,
100000000000100000000000100000000000000000200000,
000000200000200000200000000000400000000000000000,
100000000000100000000000100000100000000000200000,
000000200000200000200000000000000000000000000000,
100000000000100000000000100000100000000000200000,
000000200000200000000000300000000000400000000000,
#GOGOSTART
100000000000200000000000100000100000000000100000,
000000100000200000100000200000000000200000000000,
100000000000200000000000100000100000000000100000,
000000100000200000000000600000800000000000000000,
100000000000200000000000100000100000000000100000,
000000100000200000100000200000000000200000000000,
100000000000200000000000100000100000000000100000,
000000100000200000000000600000800000000000000000,
100000000000500000000000000000800000000000000000,
100000100000000000500000000000800000000000000000,
#GOGOEND
100000000000200000000000100000100000000000100000,
100000000000200000000000100000100000000000100000,
100000000000200000000000100000100000000000100000,
000000000000000000000000000000000000000000000000,
100000000000100000000000100000000000100000000000,
100000100000200000200000000000100000100000200000,
200000000000400000000000000000000000400000000000,
000000000000400000000000400000000000000000000000,
100000000000200000000000100000200000000000100000,
100000000000200000000000100000200000000000100000,
100000000000200000000000100000200000000000100000,
100000000000000000000000000000000000000000000000,
100000200000100000200000000000200000200000000000,
100000200000100000200000000000200000200000000000,
100000100000200000200000100000100000000000700000,
000000000000000000000000000000000000000000800000,
000000000000000000000000000000000000000000000000,
100000000000000000100000100000000000200000000000,
100000000000000000100000100000000000200000000000,
100000000000000000100000100000000000200000000000,
100000000000000000100000100000200000000000000000,
200000200000200000000000100000100000100000000000,
200000200000200000000000100000100000100000000000,
000000000000100000000000100000000000200000000000,
100000000000100000000000200000200000000000500000,
000000000000000000000000000000800000000000000000,
100000200000100000200000000000000000000000000000,
100000200000100000200000000000000000000000000000,
100000200000100000200000100000200000100000200000,
600000000000000000000000000000000000000000800000,
000000000000000000000000000000000000000000000000,
000000300000300000300000600000000000000000000000,
000000800000000000000000000000000000300000000000,
#GOGOSTART
100000000000200000000000100000200000000000100000,
200000100000200000100000200000000000200000000000,
100000000000200000000000100000200000000000100000,
000000100000100000100000300000000000300000000000,
100000000000200000000000100000200000000000100000,
200000100000200000100000200000000000200000000000,
100000000000200000000000100000200000000000100000,
000000100000100000100000300000000000300000000000,
100000000000500000000000000000800000000000000000,
100000100000000000500000000000800000000000000000,
300000300000300000400000000000400000000000400000,
300000300000300000400000000000000000000000000000,
#GOGOEND
#END
COURSE:Normal
LEVEL:3
BALLOON:6,6
SCOREINIT:1070
SCOREDIFF:460
#START
#SCROLL 0.8
000000000000000000000000000000000000000000000000,
100000000000000000000000100000000000000000100000,
000000000000000000000000000000000000000000000000,
100000000000000000000000100000000000000000100000,
000000000000000000000000000000000000000000000000,
100000000000100000000000100000000000000000100000,
000000000000000000000000000000000000000000000000,
600000000000000800000000000000000600000000000000,
000000000800000000000000000000000000000000000000,
#GOGOSTART
100000000000100000000000100000000000000000100000,
000000000000100000000000100000000000000000000000,
100000000000100000000000100000000000000000100000,
000000000000000000000000300000000000000000000000,
100000000000100000000000100000000000000000100000,
000000000000100000000000100000000000000000000000,
100000000000100000000000100000000000000000100000,
000000000000000000000000300000000000000000000000,
600000000000000000000000000000000000000000000000,
000000000000000000800000000000000000000000000000,
#GOGOEND
100000000000000000000000100000000000000000000000,
100000000000000000000000100000000000000000000000,
100000000000100000000000100000000000000000000000,
100000000000000000000000000000000000000000000000,
100000000000000000000000100000000000000000000000,
100000000000100000000000100000000000000000000000,
500000000000000000000000000000800000000000000000,
000000000000400000000000400000000000000000000000,
100000000000000000000000100000000000000000000000,
100000000000000000000000100000000000000000000000,
100000000000100000000000100000000000000000000000,
100000000000000000000000000000000000000000000000,
100000000000000000000000100000000000000000000000,
100000000000100000000000100000000000000000000000,
100000000000000000000000100000000000000000700000,
000000000000000000000000000000000000000000800000,
000000000000000000000000000000000000000000000000,
100000000000000000000000200000000000000000000000,
100000000000000000000000200000000000000000000000,
100000000000000000000000100000000000100000000000,
100000000000000000000000000000000000000000000000,
200000000000000000000000100000000000100000000000,
200000000000000000000000100000000000100000000000,
000000000000100000000000100000000000100000000000,
100000000000000000000000100000000000000000500000,
000000000000000000000000800000000000000000000000,
300000000000300000000000000000000000000000000000,
300000000000300000000000000000000000000000000000,
300000000000300000000000300000000000300000000000,
600000000000000000000000000000000000000000800000,
000000000000000000000000000000000000000000000000,
900000000000000000000000000000000000000000000000,
000000000000000000000000000000000000000000000000,
#GOGOSTART
100000000000100000000000100000000000000000100000,
000000000000100000000000100000000000000000000000,
100000000000100000000000100000000000000000100000,
000000000000000000000000300000000000300000000000,
100000000000100000000000100000000000000000100000,
000000000000100000000000100000000000000000000000,
100000000000100000000000100000000000000000100000,
000000000000000000000000300000000000300000000000,
600000000000000000000000000000800000000000000000,
600000000000000000000000000000800000000000000000,
300000000000300000000000000000300000000000000000,
300000300000300000300000000000000000000000000000,
#GOGOEND
#END
COURSE:Easy
LEVEL:2
BALLOON:5,5,5
SCOREINIT:1130
SCOREDIFF:825
#START
#SCROLL 0.8
000000000000000000000000000000000000000000000000,
300000000000000000000000000000000000000000000000,
000000000000000000000000000000000000000000000000,
300000000000000000000000000000000000000000000000,
000000000000000000000000000000000000000000000000,
100000000000000000000000100000000000000000000000,
100000000000000000000000000000000000000000000000,
600000000000000800000000000000000600000000000000,
000000000800000000000000000000000000000000000000,
#GOGOSTART
100000000000000000000000100000000000000000000000,
100000000000000000000000000000000000000000000000,
100000000000000000000000100000000000000000000000,
100000000000000000000000300000000000000000000000,
100000000000000000000000100000000000000000000000,
100000000000000000000000000000000000000000000000,
100000000000000000000000100000000000000000000000,
100000000000000000000000300000000000000000000000,
700000000000000000000000000000000000000000800000,
000000000000000000000000000000000000000000000000,
#GOGOEND
100000000000000000000000000000000000000000000000,
100000000000000000000000000000000000000000000000,
100000000000000000000000100000000000000000000000,
100000000000000000000000000000000000000000000000,
100000000000000000000000000000000000000000000000,
100000000000000000000000000000000000000000000000,
500000000000000000000000000000000000000000800000,
000000000000000000000000000000000000000000000000,
100000000000000000000000000000000000000000000000,
100000000000000000000000000000000000000000000000,
100000000000000000000000100000000000000000000000,
100000000000000000000000000000000000000000000000,
100000000000000000000000000000000000000000000000,
100000000000000000000000000000000000000000000000,
100000000000000000000000000000000000000000700000,
000000000000000000000000000000000000000000800000,
000000000000000000000000000000000000000000000000,
100000000000000000000000000000000000000000000000,
100000000000000000000000100000000000000000000000,
100000000000000000000000000000000000000000000000,
100000000000000000000000000000000000000000000000,
200000000000000000000000000000000000000000000000,
200000000000000000000000000000000000000000000000,
100000000000000000000000100000000000000000000000,
100000000000000000000000100000000000000000500000,
000000000000000000000000800000000000000000000000,
300000000000300000000000000000000000000000000000,
300000000000300000000000000000000000000000000000,
300000000000300000000000300000000000300000000000,
600000000000000000000000000000000000000000800000,
000000000000000000000000000000000000000000000000,
900000000000000000000000000000000000000000000000,
800000000000000000000000000000000000000000000000,
#GOGOSTART
100000000000000000000000100000000000000000000000,
100000000000000000000000000000000000000000000000,
100000000000000000000000100000000000000000000000,
100000000000000000000000300000000000000000000000,
100000000000000000000000100000000000000000000000,
100000000000000000000000000000000000000000000000,
100000000000000000000000100000000000000000000000,
100000000000000000000000300000000000000000000000,
600000000000000000000000000000800000000000000000,
600000000000000000000000800000000000000000000000,
300000000000300000000000000000300000000000000000,
600000000000000000800000000000000000000000000000,
#GOGOEND
#END