forked from ESE/ESE
307 lines
3.8 KiB
Plaintext
307 lines
3.8 KiB
Plaintext
//TJADB Project
|
|
TITLE:Hope
|
|
TITLEJA:Hope
|
|
SUBTITLE:--Namie Amuro/ONE PIECE
|
|
SUBTITLEJA:「ワンピース」より
|
|
BPM:140
|
|
WAVE:Hope.ogg
|
|
OFFSET:-1.834
|
|
DEMOSTART:63.316
|
|
|
|
COURSE:Oni
|
|
LEVEL:7
|
|
BALLOON:12,8,8,12,15
|
|
SCOREINIT:920
|
|
SCOREDIFF:258
|
|
|
|
|
|
#START
|
|
|
|
|
|
#GOGOSTART
|
|
3001001020112010,
|
|
1001001020002000,
|
|
1001001020112010,
|
|
1001001020112020,
|
|
1022201020020020,
|
|
1021201020020000,
|
|
1111220200102020,
|
|
1002003003004000,//8
|
|
|
|
#GOGOEND
|
|
1001100120011001,
|
|
1001100120011000,
|
|
1001100120011001,
|
|
1001200030000020,
|
|
2002002220020020,
|
|
2002002220020020,
|
|
20220270,
|
|
00008002,
|
|
2002002220020020,
|
|
2002002220020020,
|
|
20220270,
|
|
00084000,
|
|
10112011,
|
|
12112010,
|
|
10120270,
|
|
00082200,
|
|
10112011,
|
|
12112070,
|
|
0000000080000022,
|
|
20220400,
|
|
300222222111,
|
|
100010005000000000000000000000000008000000000000,
|
|
300222222111,
|
|
100010005000000000000000000000000008000000000000,
|
|
300222222111,
|
|
100010005000000000080000000000200000100000200000,
|
|
1120112011207000,
|
|
08,//36
|
|
|
|
#GOGOSTART
|
|
3001001020112010,
|
|
1001001020002000,
|
|
1001001020112010,
|
|
1001001020112020,
|
|
1022201020020020,
|
|
1021201020020000,
|
|
1111220200102020,//43
|
|
|
|
#GOGOEND
|
|
1002003003004000,//44
|
|
|
|
#GOGOSTART
|
|
300222111222,
|
|
100010001000500000000000000000000008000000000000,
|
|
300111222111,
|
|
200020002000500000000008000000001000100020002000,
|
|
500000000008000000001000100020002000500000000008,
|
|
00300344,
|
|
600000000000000000000000000000000000000000080000,
|
|
|
|
#GOGOEND
|
|
#BPMCHANGE 135.75
|
|
#SCROLL 1.03
|
|
02022222,
|
|
|
|
|
|
#END
|
|
|
|
|
|
COURSE:Hard
|
|
LEVEL:5
|
|
BALLOON:12,10,6,6,10,10,12
|
|
SCOREINIT:1080
|
|
SCOREDIFF:330
|
|
|
|
#START
|
|
#GOGOSTART
|
|
11,
|
|
1001001020002000,
|
|
11,
|
|
1001001020020020,
|
|
0011100020020020,
|
|
0010100020020000,
|
|
7,
|
|
8000003003003000,//8
|
|
|
|
#GOGOEND
|
|
1121,
|
|
1122,
|
|
1121,
|
|
1130,
|
|
2002000020020000,
|
|
2002000020020000,
|
|
20220270,
|
|
08,
|
|
2002000020020000,
|
|
2002000020020000,
|
|
20220270,
|
|
0840,
|
|
1122,
|
|
1122,
|
|
10110170,
|
|
0820,
|
|
1122,
|
|
1127,
|
|
0000000080000022,
|
|
20220400,
|
|
3222,
|
|
500000000000000000000000000000000008000000000000,
|
|
3222,
|
|
500000000000000000000000000000000008000000000000,
|
|
3222,
|
|
500000000000000008000000000000200000200000200000,
|
|
30111170,
|
|
08,//36
|
|
|
|
#GOGOSTART
|
|
11,
|
|
1001001020002000,
|
|
11,
|
|
1001001020020020,
|
|
0011100020020020,
|
|
0010100020020000,
|
|
7,//43
|
|
|
|
#GOGOEND
|
|
8000003003003000,//44
|
|
|
|
#GOGOSTART
|
|
1222,
|
|
500000000000000000000000000000000008000000000000,
|
|
1222,
|
|
500000000000000000000008000000000000400000000000,
|
|
3043,
|
|
00300344,
|
|
600000000000000000000000000000000000000000080000,
|
|
|
|
#GOGOEND
|
|
02022222,
|
|
,
|
|
,
|
|
#END
|
|
|
|
COURSE:Normal
|
|
LEVEL:3
|
|
BALLOON:6,6,6,6,13,8
|
|
|
|
#START
|
|
#GOGOSTART
|
|
11,
|
|
1011,
|
|
11,
|
|
33,
|
|
000000500000000000000000000000000000000008000000,
|
|
000000500000000000000000000000000008000000000000,
|
|
1100,
|
|
3,//8
|
|
|
|
#GOGOEND
|
|
12,
|
|
1110,
|
|
12,
|
|
1130,
|
|
11,
|
|
11,
|
|
1107,
|
|
08,
|
|
11,
|
|
11,
|
|
1107,
|
|
08,
|
|
1111,
|
|
2222,
|
|
1107,
|
|
08,
|
|
1111,
|
|
2227,
|
|
08,
|
|
3,
|
|
1111,
|
|
3,
|
|
1111,
|
|
3,
|
|
1111,
|
|
3,
|
|
7,
|
|
08,//36
|
|
|
|
#GOGOSTART
|
|
11,
|
|
1022,
|
|
11,
|
|
33,
|
|
000000500000000000000000000000000000000008000000,
|
|
000000500000000000000000000000000008000000000000,
|
|
2200,//43
|
|
|
|
#GOGOEND
|
|
3,//44
|
|
|
|
#GOGOSTART
|
|
1111,
|
|
3,
|
|
1111,
|
|
3003,
|
|
3033,
|
|
00100111,
|
|
600000000000000000000000000000000000000000080000,
|
|
|
|
#GOGOEND
|
|
00000007,
|
|
,
|
|
8,
|
|
#END
|
|
|
|
COURSE:Easy
|
|
LEVEL:2
|
|
BALLOON:12,5,12,7
|
|
|
|
#START
|
|
#GOGOSTART
|
|
1,
|
|
11,
|
|
1,
|
|
33,
|
|
000000500000000000000000000000000008000000000000,
|
|
000000500000000000000000000008000000000000000000,
|
|
1,
|
|
3,//8
|
|
|
|
#GOGOEND
|
|
11,
|
|
1,
|
|
11,
|
|
3,
|
|
1,
|
|
1,
|
|
2,
|
|
,
|
|
1,
|
|
1,
|
|
2,
|
|
,
|
|
11,
|
|
11,
|
|
7,
|
|
08,
|
|
11,
|
|
1017,
|
|
08,
|
|
3,
|
|
11,
|
|
3,
|
|
11,
|
|
3,
|
|
11,
|
|
3,
|
|
7,
|
|
08,//36
|
|
|
|
#GOGOSTART
|
|
1,
|
|
11,
|
|
1,
|
|
33,
|
|
000000500000000000000000000000000008000000000000,
|
|
000000500000000000000000000008000000000000000000,
|
|
1,//43
|
|
|
|
#GOGOEND
|
|
3,//44
|
|
|
|
#GOGOSTART
|
|
11,
|
|
500000000000000000000000000008000000000000000000,
|
|
11,
|
|
500000000000000000000008000000000000000000000000,
|
|
3033,
|
|
,
|
|
600000000000000000000000000000000000000000080000,
|
|
|
|
#GOGOEND
|
|
00000007,
|
|
,
|
|
8,
|
|
#END |