Files
ESE-ja-fix/02 Anime/Ichi Rin no Hana/Ichi Rin no Hana.tja
T
2023-01-17 00:45:18 -05:00

354 lines
14 KiB
Plaintext

//TJADB Project
TITLE:Ichi Rin no Hana
TITLEJA:一輪の花
SUBTITLE:--HIGH and MIGHTY COLOR/BLEACH
SUBTITLEJA:「BLEACH」より
BPM:195
WAVE:Ichi Rin no Hana.ogg
OFFSET:-5.238
DEMOSTART:5.238
COURSE:Oni
LEVEL:8
BALLOON:10
SCOREINIT:690
SCOREDIFF:150
#START
100000000000100000000000100000100100100000100000,
100000000000100000000000100000100100200000100000,
100000100100200000000000100000100100200000000000,
300000000000200000300000000000200000300000000000,
100000000000100000000000100000100100100000100000,
100000000000100000000000100000100100200000100000,
100000100100200000000000100000100100200000000000,
100000000000200000100000000000200000100000200000,
100000000000200000000000100100100000200000000000,
300000000000200000300000000000200000300000000000,
300000000000200000000000100000100000200000200000,
300000000000000000000000000000000000000000000000,
100000100000000000100000200000000000200000100000,
200000100100100000200000100000200000200000000000,
100000100000000000100000200000000000200000100000,
200000100100200000200000100000100000200000000000,
100000100000000000100000200000000000200000100000,
200000100100100000200000100000200000200000000000,
100000100000000000100000200000000000200000100000,
200000100100200000200000100000100000200000000000,
100000100000000000100000000000100000000000000000,
000000000000000000100000300000000000000000000000,
100000100000000000100000000000100000000000000000,
000000000000000000100000400000000000000000000000,
100000100000000000100000000000100000000000000000,
000000000000000000100000300000000000000000000000,
100000100000000000100000000000100000000000000000,
000000000000000000100000400000000000200000200000,
100000100000000000200000100000100000000000200000,
000000200000100000200000100000000000200000200000,
100000100000000000200000100000100000000000200000,
000000100000100000200000100000000000200000200000,
100000100000000000200000100000100000000000200000,
000000200000100000200000100000000000200000200000,
700000000000000000000000000000000000800000000000,
100000100000200000200000100000100100200000000000,
#GOGOSTART
100000100100100000100100100000100100100000100000,
100000100100100000100100100000100100200000100000,
100000100100200000000000100000100100200000000000,
300000000000200000300000000000200000300000000000,
100000100100100000100100100000100100100000100000,
100000100100100000100100100000100100100000100000,
100000100100200000000000100000100100200000000000,
100000000000200200100000000000200200100000000000,
100000100100100000100100100000100100100000100000,
100000100100100000100100100000100100200000100000,
100000100100200000100000100000100100200000100000,
300000000000200000300000000000200000300000000000,
100000100100100000100100100000100100100000100000,
100000100100100000100100100000100100200000100000,
100000100100200000100000100000100100200000100000,
100000000000200200100000000000200200100000000000,
100000000000200000000000100100100000200000000000,
300000000000200000300000000000200000300000000000,
300000000000200000000000100100100000200000000000,
100100100000200000100100100000200000100100100000,
100000000000200000000000100100100000200000000000,
300000000000200000300000000000200000300000000000,
300000000000000000000000100010001000100010001000,
#GOGOEND
100000000000000000000000000000000000000000000000,
100000100000000000100000200000000000200000100000,
200000100100200000200000100000200000200000000000,
100000100000000000100000200000000000200000100000,
200000100100200000200000100000100000200000000000,
100000100000000000100000200000000000200000100000,
200000100100200000200000100000200000200000000000,
100000100000000000100000200000000000200000100000,
300000000000300000000000400000000000400000000000,
#END
COURSE:Hard
LEVEL:5
BALLOON:8
SCOREINIT:750
SCOREDIFF:180
#START
100000000000100000000000100000100000100000000000,
100000000000100000000000100000100000200000000000,
100000000000200000000000100000000000200000000000,
300000000000000000300000000000000000300000000000,
100000000000100000000000100000100000100000000000,
100000000000100000000000100000100000200000000000,
100000000000200000000000100000000000200000000000,
100000000000200000100000000000200000100000000000,
100000000000200000000000100000100000200000000000,
300000000000000000300000000000000000300000000000,
100000000000200000000000100000100000100000100000,
300000000000000000000000000000000000000000000000,
100000100000000000100000100000000000100000100000,
000000100000100000000000100000100000200000000000,
100000100000000000100000200000000000100000100000,
000000100000200000000000100000100000200000000000,
100000100000000000100000100000000000100000100000,
000000100000100000000000100000100000200000000000,
100000100000000000100000200000000000100000100000,
000000100000200000000000100000100000200000000000,
100000100000000000100000000000100000000000000000,
000000000000000000000000300000000000000000000000,
100000100000000000100000000000100000000000000000,
000000000000000000000000400000000000000000000000,
100000100000000000100000000000100000000000000000,
000000000000000000000000300000000000000000000000,
100000100000000000100000000000100000000000000000,
000000000000000000000000400000000000000000000000,
100000100000000000100000000000100000000000100000,
000000100000000000100000100000000000000000000000,
100000100000000000100000000000100000000000100000,
000000100000000000100000200000000000000000000000,
100000100000000000100000000000100000000000100000,
000000100000000000100000100000000000000000000000,
700000000000000000000000000000000000000000800000,
000000000000000000000000000000000000000000000000,
#GOGOSTART
100000000000100000000000100000100000100000000000,
100000000000100000000000100000100000200000000000,
100000000000200000000000100000000000200000000000,
300000000000000000300000000000000000300000000000,
100000000000100000000000100000100000100000000000,
100000000000100000000000100000100000200000000000,
100000000000200000000000100000000000200000000000,
100000000000200000100000000000200000100000000000,
100000000000100000000000100000100000100000000000,
100000000000100000000000100000100000200000000000,
100000000000200000000000100000000000200000000000,
300000000000000000300000000000000000300000000000,
100000000000100000000000100000100000100000000000,
100000000000100000000000100000100000200000000000,
100000000000200000000000100000100000200000000000,
100000000000200000100000000000200000100000000000,
100000000000200000000000100000100000200000000000,
300000000000000000400000000000000000300000000000,
300000000000200000000000100000100000200000000000,
100000000000200000100000000000200000100000000000,
100000000000200000000000100000100000200000000000,
300000000000000000400000000000000000300000000000,
600000000000000000000000800000000000000000000000,
#GOGOEND
300000000000000000000000000000000000000000000000,
100000100000000000100000100000000000100000100000,
000000100000100000000000100000100000200000000000,
100000100000000000100000200000000000100000100000,
000000100000200000000000100000100000200000000000,
100000100000000000100000100000000000100000100000,
000000100000100000000000100000100000200000000000,
100000100000000000100000200000000000100000000000,
300000000000300000000000400000000000400000000000,
#END
COURSE:Normal
LEVEL:4
BALLOON:6,6
SCOREINIT:1100
SCOREDIFF:380
#START
#SCROLL 0.8
100000000000000000000000100000000000000000000000,
200000000000000000000000200000000000000000000000,
100000000000000000000000000000000000000000000000,
300000000000000000300000000000000000300000000000,
100000000000000000000000100000000000000000000000,
200000000000000000000000200000000000000000000000,
100000000000000000000000000000000000000000000000,
500000000000000000000000800000000000000000000000,
100000000000000000000000200000000000000000000000,
100000000000000000000000200000000000000000000000,
600000000000000000000000800000000000000000000000,
300000000000000000000000000000000000000000000000,
100000000000000000000000100000000000000000000000,
100000000000100000000000100000000000000000000000,
100000000000000000000000100000000000000000000000,
200000000000200000000000200000000000000000000000,
100000000000000000000000100000000000000000000000,
100000000000100000000000100000000000000000000000,
100000000000000000000000100000000000000000000000,
200000000000200000000000200000000000000000000000,
100000000000000000000000200000000000000000000000,
100000000000000000000000300000000000000000000000,
100000000000000000000000200000000000000000000000,
100000000000000000000000400000000000000000000000,
100000000000000000000000200000000000000000000000,
100000000000000000000000300000000000000000000000,
100000000000000000000000200000000000000000000000,
100000000000000000000000400000000000000000000000,
500000000000000000000000000000000000800000000000,
000000000000000000000000300000000000000000000000,
500000000000000000000000000000000000800000000000,
000000000000000000000000400000000000000000000000,
700000000000000000000000000000000000800000000000,
000000000000000000000000300000000000000000000000,
600000000000000000000000000000000000800000000000,
000000000000000000000000000000000000000000000000,
#GOGOSTART
100000000000000000000000100000000000000000000000,
100000000000000000000000100000000000000000000000,
100000000000000000000000000000000000000000000000,
300000000000000000300000000000000000300000000000,
100000000000000000000000100000000000000000000000,
200000000000000000000000200000000000000000000000,
100000000000000000000000000000000000000000000000,
300000000000000000300000000000000000300000000000,
100000000000000000000000100000000000000000000000,
100000000000000000000000100000000000000000000000,
100000000000000000000000000000000000000000000000,
300000000000000000300000000000000000300000000000,
100000000000000000000000100000000000000000000000,
200000000000000000000000200000000000000000000000,
100000000000000000000000000000000000000000000000,
500000000000000000000000800000000000000000000000,
100000000000000000000000200000000000000000000000,
100000000000000000000000200000000000000000000000,
700000000000000000000000000000000000000000800000,
000000000000000000000000000000000000000000000000,
100000000000000000000000200000000000000000000000,
300000000000000000300000000000000000300000000000,
600000000000000000000000800000000000000000000000,
#GOGOEND
300000000000000000000000000000000000000000000000,
100000000000000000000000100000000000000000000000,
100000000000100000000000100000000000000000000000,
100000000000000000000000100000000000000000000000,
200000000000200000000000200000000000000000000000,
100000000000000000000000100000000000000000000000,
100000000000100000000000100000000000000000000000,
100000000000000000000000100000000000000000000000,
300000000000300000000000300000000000300000000000,
#END
COURSE:Easy
LEVEL:4
BALLOON:4,4
SCOREINIT:1100
SCOREDIFF:410
#START
#SCROLL 0.8
100000000000000000000000100000000000000000000000,
100000000000000000000000100000000000000000000000,
100000000000000000000000000000000000000000000000,
300000000000000000000000000000000000000000000000,
100000000000000000000000100000000000000000000000,
100000000000000000000000100000000000000000000000,
100000000000000000000000000000000000000000000000,
500000000000800000000000000000000000000000000000,
100000000000000000000000200000000000000000000000,
100000000000000000000000200000000000000000000000,
100000000000000000000000000000000000000000000000,
300000000000000000000000000000000000000000000000,
100000000000000000000000000000000000000000000000,
100000000000000000000000400000000000000000000000,
100000000000000000000000000000000000000000000000,
100000000000000000000000300000000000000000000000,
100000000000000000000000000000000000000000000000,
100000000000000000000000400000000000000000000000,
100000000000000000000000000000000000000000000000,
100000000000000000000000300000000000000000000000,
100000000000000000000000000000000000000000000000,
100000000000000000000000100000000000000000000000,
100000000000000000000000000000000000000000000000,
100000000000000000000000200000000000000000000000,
100000000000000000000000000000000000000000000000,
100000000000000000000000100000000000000000000000,
100000000000000000000000000000000000000000000000,
100000000000000000000000200000000000000000000000,
500000000000000000000000000000000000800000000000,
000000000000000000000000300000000000000000000000,
500000000000000000000000000000000000800000000000,
000000000000000000000000400000000000000000000000,
700000000000000000000000000000000000800000000000,
000000000000000000000000300000000000000000000000,
600000000000000000000000000000000000800000000000,
000000000000000000000000000000000000000000000000,
#GOGOSTART
100000000000000000000000100000000000000000000000,
100000000000000000000000100000000000000000000000,
100000000000000000000000000000000000000000000000,
300000000000000000000000000000000000000000000000,
100000000000000000000000100000000000000000000000,
100000000000000000000000100000000000000000000000,
100000000000000000000000000000000000000000000000,
400000000000000000000000000000000000000000000000,
100000000000000000000000100000000000000000000000,
100000000000000000000000100000000000000000000000,
100000000000000000000000000000000000000000000000,
300000000000000000000000000000000000000000000000,
100000000000000000000000100000000000000000000000,
100000000000000000000000100000000000000000000000,
100000000000000000000000000000000000000000000000,
500000000000000000000000800000000000000000000000,
100000000000000000000000200000000000000000000000,
100000000000000000000000200000000000000000000000,
100000000000000000000000000000000000000000000000,
300000000000000000000000000000000000000000000000,
100000000000000000000000200000000000000000000000,
100000000000000000000000200000000000000000000000,
600000000000000000000000800000000000000000000000,
#GOGOEND
300000000000000000000000000000000000000000000000,
100000000000000000000000000000000000000000000000,
100000000000000000000000400000000000000000000000,
100000000000000000000000000000000000000000000000,
100000000000000000000000300000000000000000000000,
100000000000000000000000000000000000000000000000,
100000000000000000000000400000000000000000000000,
100000000000000000000000100000000000000000000000,
900000000000000000000000000000000000000000000008,
#END