Files
ESE-ja-fix/02 Anime/Jounetsu de Mune Atsu!/Jounetsu de Mune Atsu!.tja
T
2023-01-17 00:45:18 -05:00

265 lines
8.7 KiB
Plaintext
Raw Blame History

This file contains ambiguous Unicode characters
This file contains Unicode characters that might be confused with other characters. If you think that this is intentional, you can safely ignore this warning. Use the Escape button to reveal them.
//TJADB Project
TITLE:Jounetsu de Mune Atsu!
TITLEJA:情熱で胸アツ!
SUBTITLE:--T-pistonz & KMC/Inazuma Eleven GO 2: Chrono Stone
SUBTITLEJA:「イナズマイレブンGO クロノ・ストーン」より
BPM:120
WAVE:Jounetsu de Mune Atsu!.ogg
OFFSET:-2.292
DEMOSTART:62.539
COURSE:Oni
LEVEL:7
BALLOON:10,15
SCOREINIT:950
SCOREDIFF:288
#START
100000100000100000000100000100100000100000000000,
300000000000000000000000000000000000000000000000,
#GOGOSTART
100000000100200000100000100000000100200000100000,
200000000100200000100000200000000100200000100000,
100100100000100100000100000000100000100000100000,
400000000400000000300000300000000000000000000000,
100000000100200000100000100000000100200000100000,
200000000100200000100000200000000100200000100000,
100100100000100100100100100000100000100000500000,
000000000000000000000000000008000000000000000000,
#GOGOEND
100000000100000000100000200000000200000000200000,
100000000100000000100000100000000000000000000000,
100000100100000100100000200000200200000200200000,
#MEASURE 6/4
100000200100000200100000700000000000000000000000800000000000000000000000,
#MEASURE 4/4
100000000100100000100000100000000100100000100000,
100000000100100000100000100000000100100000000000,
200000000200200000200000200000000200200000200000,
200000000200200000200000200000000200200000000000,
100000000100100000100000200000000200200000200000,
100000000100100000100000200000000200200000200000,
100000000100100000100000000000100000100000000000,
300000000300000000300000300000000000000000000000,
100000100100100200000100100000100100100200000100,
100000100100100200000100100000200000200000000000,
100000100100100200000100100000100100100200000100,
100000100100100200000100100000200000200200200200,
100000100100100200000200100000100100100200000200,
100000100100100200000200100000200100200000200000,
100000200100200000100200100000200100200000100000,
100100100000100010001000100000000000000000000000,
#GOGOSTART
100000000100200000100000100000000100200000100000,
200000000100200000100000200000000100200000100000,
100100100000100100000100000000100000100000100000,
400000000400000000300000300000000000000000000000,
100000000100200000100000100000000100200000100000,
200000000100200000100000200000000100200000100000,
100100100000100100100100100000100000100000700000,
000000000000000000000000000000000000800000000000,
100000000100200000100000100000000100200000100000,
200000000100200000100000200000000100200000100000,
500000000000000000000000008000000200200200100100,
#GOGOEND
100000000000000000000000000000000000000000000000,
#END
COURSE:Hard
LEVEL:5
BALLOON:8,9,16
SCOREINIT:940
SCOREDIFF:305
#START
000000000000000000000000000000000000000000000000,
300000000000000000000000000000000000000000000000,
#GOGOSTART
1001101010011010,
2002202020022020,
1110100011101000,
3003003030000000,
1001101010011010,
2002202020022020,
1110100011101050,
000000000000000000000000000008000000000000000000,
#GOGOEND
100000000100000000100000200000000200000000200000,
100000000100000000100000100000000000000000000000,
100000000100000000100000200000000200000000200000,
#MEASURE 6/4
100000100100000100100000700000000000000000000800000000000000000000000000,
#MEASURE 4/4
100000000100100000100000100000000000100000000000,
100000000100100000100000100000000000000000000000,
200000000200200000200000200000000000200000000000,
200000000200200000200000200000000000000000000000,
100000000100100000100000200000000000200000000000,
100000000100100000100000200000000000200000000000,
100000000100100000100000000000200000200000000000,
500000000000000000000000000080000000000000000000,
100000100000100100000000100000100000100100000000,
100000100000100100000000100000100000200000000000,
100000100000100100000000100000100000100100000000,
100000100000100100000000100000200000200000000000,
100000100000100100000000100000100000100100000000,
100000100000100100000000100000100000200000000000,
100000100100100000100000200000200200200000200000,
500000000000000000000000000080000000000000000000,
#GOGOSTART
100000000100100000100000100000000100100000100000,
200000000200200000200000200000000200200000200000,
100100100000100000000000100100100000100000000000,
300000000300000000300000300000000000000000000000,
100000000100100000100000100000000100100000100000,
200000000200200000200000200000000200200000200000,
100100100000100000000000100100100000100000700000,
000000000000000000800000000000100000100000100000,
200000000200000000000000000000100000100000100000,
200000000200000000000000000000000000000000000000,
900000000000000000000000000000000000000000000008,
#GOGOEND
#END
COURSE:Normal
LEVEL:4
BALLOON:6,7,12
SCOREINIT:1160
SCOREDIFF:505
#START
000000000000000000000000000000000000000000000000,
300000000000000000000000000000000000000000000000,
#GOGOSTART
10100110,
20200220,
11101110,
3003003030000000,
10100110,
20200220,
11101110,
500000000000000000000000000008000000000000000000,
#GOGOEND
100000000000000000000000100000000000000000000000,
100000000000100000000000100000000000000000000000,
100000000000100000000000100000000000100000000000,
#MEASURE 6/4
200000000000200000000000700000000000000000800000000000000000000000000000,
#MEASURE 4/4
100000000000100000000000100000000000000000000000,
100000000000000000000000000000000000000000000000,
200000000000200000000000200000000000000000000000,
200000000000000000000000000000000000000000000000,
100000000000100000000000100000100000100000000000,
200000000000200000000000200000200000200000000000,
100000000000100000100000000000100000100000000000,
500000000000000000000000000080000000000000000000,
100000000000100000000000100000100000100000000000,
100000000000100000000000100000000000000000000000,
100000000000100000000000100000100000100000000000,
200000000000200000000000200000000000000000000000,
100000000000100000000000100000100000100000000000,
100000000000100000000000100000000000000000000000,
100000000000100000000000100000100000200000000000,
500000000000000000000000000080000000000000000000,
#GOGOSTART
100000000000100000000000000000100000100000000000,
200000000000200000000000000000200000200000000000,
100000100000100000000000100000100000100000000000,
300000000300000000300000300000000000000000000000,
100000000000100000000000000000100000100000000000,
200000000000200000000000000000200000200000000000,
100000100000100000000000100000100000100000000000,
700000000000000000000000000008000000000000000000,
100000000000100000000000000000100000100000000000,
200000000000200000000000000000000000000000000000,
900000000000000000000000000000000000000000000008,
#GOGOEND
#END
COURSE:Easy
LEVEL:3
BALLOON:7,4,5,7
SCOREINIT:1330
SCOREDIFF:973
#START
9,
8,
#GOGOSTART
100000000000100000000000000000000000000000000000,
200000000000200000000000000000000000000000000000,
100000000000100000000000100000000000100000000000,
500000000000000000000000000080000000000000000000,
100000000000100000000000000000000000000000000000,
200000000000200000000000000000000000000000000000,
100000000000100000000000100000000000100000000000,
500000000000000000000000000080000000000000000000,
#GOGOEND
100000000000000000000000100000000000000000000000,
100000000000100000000000100000000000000000000000,
100000000000000000000000100000000000000000000000,
#MEASURE 6/4
200000000000200000000000700000000000000000800000000000000000000000000000,
#MEASURE 4/4
100000000000000000000000100000000000000000000000,
100000000000000000000000000000000000000000000000,
200000000000000000000000200000000000000000000000,
200000000000000000000000000000000000000000000000,
100000000000000000000000100000000000000000000000,
100000000000100000000000100000000000000000000000,
100000000000000000000000100000000000100000000000,
500000000000000000000000000080000000000000000000,
100000000000000000000000100000000000000000000000,
100000000000100000000000100000000000000000000000,
200000000000000000000000200000000000000000000000,
200000000000200000000000200000000000000000000000,
100000000000000000000000100000000000000000000000,
100000000000100000000000100000000000000000000000,
100000000000100000000000200000000000200000000000,
500000000000000000000000000080000000000000000000,
#GOGOSTART
100000000000100000000000000000000000000000000000,
200000000000200000000000000000000000000000000000,
100000000000100000000000100000000000100000000000,
500000000000000000000000000080000000000000000000,
100000000000100000000000000000000000000000000000,
200000000000200000000000000000000000000000000000,
100000000000100000000000100000000000100000000000,
700000000000000000000000000008000000000000000000,
100000000000100000000000000000000000000000000000,
200000000000200000000000000000000000000000000000,
900000000000000000000000000000000000000000000008,
#GOGOEND
#END