Files
ESE-ja-fix/02 Anime/Kaitou Miracle Shounen Boy/Kaitou Miracle Shounen Boy.tja
T
2023-06-15 19:15:39 -05:00

421 lines
6.9 KiB
Plaintext

//TJADB Project
TITLE:Kaitou Miracle Shounen Boy
TITLEJA:怪盗ミラクル少年ボーイ
SUBTITLE:--Arukarider/Kaitou Joker
SUBTITLEJA:「怪盗ジョーカー」より
BPM:164.06
WAVE:Kaitou Miracle Shounen Boy.ogg
OFFSET:-5.834
DEMOSTART:58.798
COURSE:Oni
LEVEL:7
SCOREINIT:670
SCOREDIFF:190
#START
#GOGOSTART
300000000000300000000000400000000000400000000000,
#BPMCHANGE 163.33
300000000000300000000000400000000000400000000000,
#BPMCHANGE 164.84
#SCROLL 0.99
100000000100100000100000000100100000100000000100,
#BPMCHANGE 161.93
#SCROLL 1.01
100000100000000100000100100000100000100100100000,
#GOGOEND
#BPMCHANGE 162.45
#SCROLL 1
100000000000200000000000200000100000000000100000,
#BPMCHANGE 162.93
000000100000200000100000200000100000000000100000,
#BPMCHANGE 163.09
100000000000200000000000200000100000000000100000,
#BPMCHANGE 163.41
000000100000200000100000300000000000000000000000,
#BPMCHANGE 163.74
100000000100100000100000000100100000100000000100,
#BPMCHANGE 165.05
#SCROLL 0.99
100000100000000100100000100000100000200200000200,
#BPMCHANGE 163.74
#SCROLL 1
200000200000200200000200200000200000200200200200,
#BPMCHANGE 158.48
#SCROLL 1.03
200000000000000000000000000000000000000000000000,
#BPMCHANGE 165.62
#SCROLL 0.99
100000000000000000100000200000100000100000200000,
#BPMCHANGE 162.45
#SCROLL 1
100000200000000000100000100000200000200000100000,
100000000000000000100000200000100000100000200000,
#BPMCHANGE 162.29
#SCROLL 1.01
100000200000200000100000200000200000200000200000,
#BPMCHANGE 162.77
#SCROLL 1
100000000000000000100000200000100000100000200000,
#BPMCHANGE 161.61
#SCROLL 1.01
100000200000000000100000100000200000200000100000,
#BPMCHANGE 167.94
#SCROLL 0.97
100000000000000000100000200000100000100000200000,
#BPMCHANGE 160.4
#SCROLL 1.02
100000200000000000200000000000200000000000200000,
#BPMCHANGE 163.74
#SCROLL 1
100000200000100000200000100000100000100000000000,
#BPMCHANGE 164.06
100000200000100000200000100000000000200000100000,
#BPMCHANGE 161.34
#SCROLL 1.01
200000100000200000200000200000000000200000100000,
#BPMCHANGE 164.39
#SCROLL 0.99
200000100000200000000000300000000000000000000000,
#BPMCHANGE 162.13
#SCROLL 1.01
100000200000100000200000100000100000100000000000,
#BPMCHANGE 162.77
#SCROLL 1
100000200000100000200000100000000000200000100000,
#BPMCHANGE 164.55
#SCROLL 0.99
200000100000400000000100100100100100200200200200,
#BPMCHANGE 160.25
#SCROLL 1.02
200000000000300000000000300000000000300000000000,
#BPMCHANGE 163.74
#SCROLL 1
100000100100100000100100100000100100100000100100,
#BPMCHANGE 164.39
#SCROLL 0.99
100000100100100000100100100000100100100000100100,
#BPMCHANGE 159.68
#SCROLL 1.02
100000100100100000000000200000200200200000200200,
#BPMCHANGE 166.32
#SCROLL 0.98
200000100100100000200200200000100000100000000000,
#BPMCHANGE 161.81
#SCROLL 1.01
100000100100100000100100100000100100100000100100,
#BPMCHANGE 164.88
#SCROLL 0.99
100000100100100000100100100000100100100000100100,
#BPMCHANGE 163.74
#SCROLL 1
100000100100100000000000200000200200200000200000,
#BPMCHANGE 161.5
#SCROLL 1.01
400000000000000000000000000000000000000000000000,
#GOGOSTART
#BPMCHANGE 161.97
100000100100100000100100100000100000100100100000,
#BPMCHANGE 162.93
#SCROLL 1
100000200200200000100000200200200000200200200000,
#BPMCHANGE 163.9
100000200000100000100100100000200200200000200000,
#BPMCHANGE 162.13
#SCROLL 1.01
100000200000100000100100100000200000200200200000,
#BPMCHANGE 164.88
#SCROLL 0.99
100000100100100000100100100000100000100100100000,
#BPMCHANGE 161.5
#SCROLL 1.01
100000200200200000100000200200200000200200200000,
#BPMCHANGE 164.55
#SCROLL 0.99
100000200000100000100100100000200200200000200000,
#BPMCHANGE 161.81
#SCROLL 1.01
100000200000100000100100100000200000200200200000,
#BPMCHANGE 163.25
#SCROLL 1
100000100100100000100100100000100000100100100000,
#BPMCHANGE 162.45
100000200200200000100000200200200000200200200000,
#BPMCHANGE 163.41
100000200000100000100100100000200200200000200000,
#BPMCHANGE 161.81
#SCROLL 1.01
100000200000100000100100100000200000200200200000,
#BPMCHANGE 163.9
#SCROLL 1
200000200000100000100000200000200000100000100000,
#BPMCHANGE 163.25
300000000000300000300000300000000200200000100000,
#BPMCHANGE 163.09
100000000000100000000000200000000000200000000000,
#BPMCHANGE 161.97
#SCROLL 1.01
200000000000200000000000100000000000200000000000,
#BPMCHANGE 162.29
300000000000300000000000400000000000400000000000,
#BPMCHANGE 164.06
#SCROLL 1
300000000000300000000000400000000000400000000000,
#GOGOEND
#BPMCHANGE 163.58
100000000100100000100000000100100000100000000100,
#BPMCHANGE 160.87
#SCROLL 1.01
100000200000000000200000000000200000000000200000,
#BPMCHANGE 147.59
#SCROLL 1.11
300000000000000000000000000000000000000000000000,
#END
COURSE:Hard
LEVEL:5
BALLOON:12,12,24
SCOREINIT:870
SCOREDIFF:270
#START
#BPMCHANGE 163
#GOGOSTART
3333,
3333,
9,
8,
#GOGOEND
10101110,
11101020,
20222022,
2230,
10101110,
11101020,
20222022,
2,
10000112,
10000221,
10000112,
10002220,
10000112,
00000221,
10000112,
1,
10101110,
11101020,
20222022,
2230,
10101110,
11101020,
20222070,
0008,
500000000000000000000000000000000008000000000000,
10101110,
11102020,
22202000,
500000000000000000000000000000000008000000000000,
10101110,
11102020,
4,
#GOGOSTART
10120111,
12212020,
12111022,
12121220,
10120111,
12212020,
12111022,
12121220,
10120111,
12212020,
12111022,
12121220,
22112211,
30333000,
1122,
2211,
3333,
3333,
#GOGOEND
9,
000000000000000000000000000000000000000000000008,
#END
COURSE:Normal
LEVEL:5
BALLOON:8,8,17
SCOREINIT:1070
SCOREDIFF:390
#START
#GOGOSTART
#BPMCHANGE 163
1111,
1111,
9,
8,
#GOGOEND
1110,
1012,
2202,
0230,
1110,
1112,
2202,
2400,
1011,
11,
1011,
1022,
1011,
11,
1011,
1,
1110,
1012,
2202,
0230,
1110,
1112,
2407,
0008,
500000000000000000000000000000000008000000000000,
1110,
1110,
2220,
500000000000000000000000000000000008000000000000,
1110,
1110,
4,
#GOGOSTART
10110110,
11101010,
11101010,
1110,
10110110,
11101010,
11101010,
2220,
10110110,
11101010,
11101010,
1110,
2222,
30333000,
11,
1110,
1111,
1111,
#GOGOEND
9,
000000000000000000000000000000000000000000000008,
#END
COURSE:Easy
LEVEL:3
BALLOON:4,6,12
SCOREINIT:960
SCOREDIFF:635
#START
#GOGOSTART
#BPMCHANGE 163
3,
3,
9,
8,
#GOGOEND
11,
1001,
0101,
0100,
11,
1001,
0101,
000000000000500000000000000008000000000000000000,
11,
1,
11,
1,
11,
1,
11,
1,
11,
1001,
0101,
0130,
11,
1001,
0107,
00000800,
500000000000000000000000000008000000000000000000,
11,
1,
11,
500000000000000000000000000008000000000000000000,
11,
1,
4,
#GOGOSTART
11,
1011,
11,
1110,
11,
1011,
11,
2220,
11,
1011,
11,
1110,
44,
3330,
11,
1110,
33,
33,
#GOGOEND
9,
000000000000000000000000000000000000000000000008,
#END