Files
ESE-ja-fix/02 Anime/Kaizoku Sentai Gokaiger/Kaizoku Sentai Gokaiger.tja
T
2023-06-15 19:15:39 -05:00

291 lines
10 KiB
Plaintext

//TJADB Project
TITLE:Kaizoku Sentai Gokaiger
TITLEJA:海賊戦隊ゴーカイジャー
SUBTITLE:--Tsuyoshi Matsubara/Kaizoku Sentai Gokaiger
BPM:162
WAVE:Kaizoku Sentai Gokaiger.ogg
OFFSET:-2.328
DEMOSTART:46.726
COURSE:Oni
LEVEL:4
BALLOON:8
SCOREINIT:750
SCOREDIFF:215
#START
300000000000000000000000300000000000000000000000,
300000000000000000000000300000000000000000000000,
100000100000200000100000100000200000100000100000,
200000100000100000200000700000000000000000000000,
000000000000000000000000800000000000000000100100,
100000000000200000100000000000100000200000100000,
300000000000000000000000000000000000000000100100,
100000100000000000100000000000100000200000000000,
100000100000200000000000100000100000200000000000,
100000100000200000000000100000100000200000000000,
100000100000200000100000100000100000200000300000,
000000300000000000300000000000400000400000000000,
100000000000200000000000100000100000200000000000,
100000000000200000100000000000100000200000100000,
100000000000200000000000100000100000200000000000,
100000000000200000100100100000100000200000100100,
100000100000200000000000100000100000200000000000,
100000100000200000100000000000100000100100100000,
100000100000200000000000100000100100100000100000,
000000100000100000000000400000000000400000000000,
100000100000200000000000100000100000200000100000,
000000100000200000100100100000100000200000000000,
100000100000200000000000100000100000200000100000,
000000100000200000100100100000100000200000100100,
100000000000200000000000100000000000200000000000,
100000000000200000100000000000100000100000100100,
100000100000200000100000200000100000000000100100,
100000100000200000100000200000100100100000500000,
000000000000000000000000000000000008000000000000,
300000300000300000300000000000000000000000000000,
#GOGOSTART
300000000000400000000000300000000000400000000000,
300000000000300000300000000000200000200000300000,
000000000000400000000000300000000000400000000000,
100000100000200000100000000000100000100100100000,
100000100000200000100100100000100000200000000000,
100000100000200000100100100000100000200000000000,
100000200000100000200000100000100100100000300000,
000000300000000000400000000000400000400000400000,
300000000000400000000000300000000000400000000000,
300000000000300000300000000000200000200000300000,
000000000000400000000000300000000000400000000000,
100000100000200000100000000000100000100100100000,
100000100000200000100100100000100000200000000000,
100000100000200000100100100000100000200000000000,
100000200000100000200000100000200000100000100000,
000000100000200000100000100100100000200000000000,
100000100000200000000000100000100000200000000000,
100000200200200000100000000000100000200000200000,
300000000000300000000000300000300000400000400000,
000000000000300000000000300000000000000000600000,
000000000000000000000000000000000000000000000000,
000000000000000000000008000000000000300000300000,
#GOGOEND
#END
COURSE:Hard
LEVEL:3
SCOREINIT:790
SCOREDIFF:248
#START
300000000000000000000000300000000000000000000000,
300000000000000000000000300000000000000000000000,
100000000000100000100000000000000000100000000000,
100000100000000000000000700000000000000000800000,
000000000000000000000000100000100000100000000000,
100000000000100000100000000000000000000000000000,
300000000000000000000000100000100000100000000000,
100000000000100000100000000000000000000000000000,
100000000000200000000000100000100000200000000000,
100000000000200000000000100000100000200000000000,
100000000000200000000000100000100000200000100000,
000000000000000000000000000000000000000000000000,
100000000000200000000000100000100000200000000000,
100000000000200000000000100000100000200000000000,
100000000000200000000000100000100000200000000000,
100000000000200000200000000000000000000000000000,
100000000000200000000000100000100000200000000000,
100000100000200000100000000000200000200000000000,
100000100000200000000000100000000000200000200000,
000000100000100000000000000000000000000000000000,
100000100000200000000000100000100000200000100000,
000000000000200000000000100000100000200000000000,
100000100000200000000000100000100000200000100000,
000000000000000000000000000000000000000000000000,
300000000000000000000000300000000000100000100000,
000000100000200000100000000000000000100000100000,
000000100000100000000000200000200000000000100000,
000000100000100000000000200000200000200000500000,
000000000000000000000000000000000080000000000000,
300000300000300000300000000000000000000000000000,
#GOGOSTART
300000000000400000000000300000000000400000000000,
300000000000300000300000000000000000000000300000,
000000000000400000000000300000000000400000000000,
300000000000300000300000000000100000100000000000,
100000100000200000100000000000200000200000000000,
100000100000200000100000000000100000100000200000,
000000200000200000000000100000100000200000100000,
000000000000000000000000000000000000000000000000,
300000000000400000000000300000000000400000000000,
300000000000300000300000000000000000000000300000,
000000000000400000000000300000000000400000000000,
300000000000300000300000000000100000100000000000,
100000100000200000100000000000200000200000000000,
100000100000200000100000000000100000100000000000,
100000100000200000000000100000100000200000500000,
000000000000000000000080000000000000000000000000,
100000000000200000000000100000100000200000000000,
100000000000100000100000000000000000000000000000,
300000000000300000000000300000000000400000400000,
000000000000300000000000300000000000300000000000,
900000000000000000000000000000000000000000000000,
000000000000000000000000000000000000000000000008,
#GOGOEND
#END
COURSE:Normal
LEVEL:2
BALLOON:10
SCOREINIT:940
SCOREDIFF:290
#START
300000000000000000000000300000000000000000000000,
300000000000000000000000300000000000000000000000,
600000000000000000000000000000000000000000000000,
000000000000000000000080000000000000000000000000,
300000000000000000000000100000000000000000000000,
100000000000100000100000000000000000000000000000,
300000000000000000000000100000000000000000000000,
100000000000100000100000000000000000000000000000,
100000000000200000000000100000000000200000000000,
100000000000200000000000000000000000000000000000,
100000000000200000000000100000000000100000100000,
000000000000000000000000000000000000000000000000,
100000000000200000000000100000000000200000000000,
100000000000100000100000000000000000000000000000,
100000000000200000000000100000000000200000000000,
100000000000100000100000000000000000000000000000,
100000000000100000100000000000000000100000000000,
100000000000100000100000000000000000000000000000,
100000000000100000000000100000000000100000000000,
500000000000000000000080000000000000000000000000,
100000000000200000000000100000000000200000000000,
100000000000200000000000100000000000000000000000,
100000000000200000000000100000000000200000000000,
100000000000000000000000000000000000000000000000,
300000000000000000000000300000000000000000000000,
100000000000100000100000000000000000000000000000,
100000000000200000000000100000000000000000000000,
100000000000200000000000100000000000200000000000,
500000000000000000000000000000000000000000000000,
000000000080000000000000000000000000000000000000,
#GOGOSTART
33,
10110003,
03,
10110000,
10110010,
10110000,
10201011,
,
300000000000000000000000300000000000100000000000,
100000000000100000100000000000000000000000300000,
000000000000000000000000300000000000100000000000,
100000000000100000100000000000000000000000000000,
100000000000100000100000000000000000100000000000,
100000000000100000100000000000000000000000000000,
100000000000200000000000100000000000100000100000,
000000000000000000000000000000000000000000000000,
100000000000200000000000100000000000200000000000,
100000000000100000100000000000000000000000000000,
300000000000300000000000300000000000300000000000,
000000000000300000000000300000000000300000000000,
900000000000000000000000000000000000000000000000,
000000000000000000000000000000000000000000000008,
#GOGOEND
#END
COURSE:Easy
LEVEL:1
BALLOON:10
SCOREINIT:970
SCOREDIFF:410
#START
300000000000000000000000000000000000000000000000,
300000000000000000000000000000000000000000000000,
600000000000000000000000000000000000000000000000,
000000000000000080000000000000000000000000000000,
300000000000000000000000000000000000000000000000,
100000000000000000000000000000000000000000000000,
300000000000000000000000000000000000000000000000,
100000000000000000000000000000000000000000000000,
100000000000100000000000000000000000000000000000,
100000000000100000000000000000000000000000000000,
100000000000000000000000100000000000000000000000,
100000000000000000000000000000000000000000000000,
100000000000000000000000100000000000000000000000,
100000000000100000000000000000000000000000000000,
100000000000000000000000100000000000000000000000,
100000000000100000000000000000000000000000000000,
100000000000100000000000000000000000000000000000,
100000000000100000000000000000000000000000000000,
100000000000000000000000100000000000000000000000,
500000000000000000000000000080000000000000000000,
100000000000000000000000100000000000000000000000,
100000000000100000000000100000000000000000000000,
100000000000000000000000100000000000000000000000,
100000000000000000000000000000000000000000000000,
100000000000000000000000100000000000000000000000,
100000000000000000000000000000000000000000000000,
100000000000100000000000100000000000000000000000,
100000000000100000000000100000000000000000000000,
500000000000000000000000000000000000000000000080,
000000000000000000000000000000000000000000000000,
#GOGOSTART
300000000000000000000000300000000000000000000000,
300000000000000000000000000000000000000000300000,
000000000000000000000000300000000000000000000000,
300000000000000000000000000000000000000000000000,
200000000000200000000000000000000000000000000000,
200000000000200000000000000000000000000000000000,
100000000000000000000000100000000000500000000000,
000000000000000000000080000000000000000000000000,
300000000000000000000000300000000000000000000000,
300000000000000000000000000000000000000000300000,
03,
3002,
2202,
2201,
1115,
000000000000000000000008000000000000000000000000,
100000000000000000000000100000000000000000000000,
100000000000000000000000000000000000000000000000,
300000000000000000000000300000000000300000000000,
000000000000300000000000300000000000000000000000,
900000000000000000000000000000000000000000000000,
000000000000000000000000000000000000000000000008,
#GOGOEND
#END