Files
ESE-ja-fix/02 Anime/Kimi ni 100 Percent/Kimi ni 100 Percent.tja
T

293 lines
3.4 KiB
Plaintext

//TJADB Project
TITLE:Kimi ni 100%
TITLEJA:キミに100パーセント
SUBTITLE:--Kyary Pamyu Pamyu/Crayon Shin-chan
SUBTITLEJA:「クレヨンしんちゃん」より
BPM:160
WAVE:Kimi ni 100 Percent.ogg
OFFSET:-1.604
DEMOSTART:49.217
COURSE:Oni
LEVEL:5
BALLOON:40
SCOREINIT:880
SCOREDIFF:210
#START
20202222,
20202222,
1212,
1221,
10202222,
10202222,
1212,
1000200020222022,
01112220,
1011101020002000,
01112220,
1011101020202000,
02221110,
1011101020002000,
0010101020111020,
0010200010112020,
01112220,
1011101020202000,
01112220,
1011101020202000,
02221110,
1011101020202000,
0010101020111020,
01201000,
600000000000000000000000000000000008000000000000,
600000000000000000000000000000000008000000000000,
3344,
30440000,
1010200010102011,
1010200010102011,
10001022,
1010201120201010,
#GOGOSTART
1000201011102010,
1010202011102000,
11201120,
10220011,
1000201011102010,
1010202011102020,
10102011,
2000101010222020,
1000201011102010,
1010202011102000,
11201120,
10220011,
1000201011102010,
1010202011102020,
10102011,
2000101000222022,
#GOGOEND
7,
,
,
08000000,
#END
COURSE:Hard
LEVEL:5
BALLOON:38
SCOREINIT:980
SCOREDIFF:308
#START
20202222,
20202222,
22,
2220,
20202222,
20202222,
2220,
2,
01112220,
11102020,
01112220,
11102020,
01112220,
22202020,
0010100010111010,
01201000,
01112220,
11102020,
01112220,
11102020,
01112220,
22202020,
0010100010111010,
01201000,
600000000000000000000000000000000008000000000000,
600000000000000000000000000000000008000000000000,
3333,
30440000,
1000100010101011,
1000100010101011,
10001022,
10000011,
#GOGOSTART
1000200011102000,
10221020,
11201120,
10220011,
1000200011102000,
10221020,
10102011,
20110011,
1000200011102000,
10221020,
11201120,
10220011,
1000200011102000,
10221020,
10102011,
20110000,
#GOGOEND
7,
,
,
08000000,
,
#END
COURSE:Normal
LEVEL:3
BALLOON:9,28
SCOREINIT:1200
SCOREDIFF:605
#START
2,
2,
5,
000000000000000000000008000000000000000000000000,
2,
2,
5,
000008000000000000000000000000000000000000000000,
1110,
1011,
1110,
10001110,
2220,
2022,
11,
2220,
1110,
1011,
1110,
10001110,
2220,
2022,
11,
2220,
600000000000000000000000000000000008000000000000,
600000000000000000000000000000000008000000000000,
9,
0980,
3330
4440,
33,
30000011,
#GOGOSTART
10001110,
1111,
33,
600000000000000000000008000000000000100000100000,
10001110,
1110,
44,
600000000000000000000008000000000000100000100000,
10001110,
1111,
33,
600000000000000000000008000000000000100000100000,
10001110,
1110,
44,
4,
#GOGOEND
7,
,
,
08000000,
,
#END
COURSE:Easy
LEVEL:2
BALLOON:6,18
SCOREINIT:1120
SCOREDIFF:808
#START
2,
2,
5,
000000000000000000000008000000000000000000000000,
2,
2,
5,
000008000000000000000000000000000000000000000000,
11,
1,
11,
1,
22,
2,
11,
1110,
11,
1,
11,
1,
22,
2,
11,
1110,
600000000000000000000000000000000008000000000000,
600000000000000000000000000000000008000000000000,
9,
0980,
3330
3330,
33,
3,
#GOGOSTART
11,
1110,
33,
600000000000000000000008000000000000000000000000,
11,
1110,
33,
600000000000000000000008000000000000000000000000,
11,
1110,
33,
600000000000000000000008000000000000000000000000,
11,
1110,
33,
3,
#GOGOEND
7,
,
,
08000000,
,
#END