forked from ESE/ESE
317 lines
3.8 KiB
Plaintext
317 lines
3.8 KiB
Plaintext
//TJADB Project
|
|
TITLE:Kimi no Shiranai Monogatari
|
|
TITLEJA:君の知らない物語
|
|
SUBTITLE:--supercell/Bakemonogatari
|
|
SUBTITLEJA:「化物語」より
|
|
BPM:165
|
|
WAVE:Kimi no Shiranai Monogatari.ogg
|
|
OFFSET:-1.731
|
|
DEMOSTART:55.183
|
|
|
|
COURSE:Oni
|
|
LEVEL:7
|
|
SCOREINIT:690
|
|
SCOREDIFF:170
|
|
|
|
|
|
#START
|
|
|
|
|
|
1020222010202220,
|
|
1020222010202220,
|
|
1020222010202220,
|
|
1022202010221020,
|
|
1020222010202220,
|
|
1020222010221020,
|
|
3002203000222030,
|
|
0022203000400000,
|
|
3000200010201120,
|
|
10210210,
|
|
500000000000000000000008000000200000200000200000,
|
|
03333333,
|
|
10010020,
|
|
10020201,
|
|
10010020,
|
|
10020200,
|
|
12,
|
|
10002001,
|
|
500000000000000000000008000000100000100000500000,
|
|
000000000000000000000008000000000000000000000000,
|
|
3000101010101011,
|
|
11120201,
|
|
1010101110101011,
|
|
11120201,
|
|
1010101120101010,
|
|
1010101120101010,
|
|
2010101120101010,
|
|
2010101120101010,
|
|
3000101010101011,
|
|
1020202010102022,
|
|
10112010,
|
|
0010200010002022,
|
|
10112010,
|
|
01202110,
|
|
3111,
|
|
3111,
|
|
600000000000000000000000000000000008000000000000,
|
|
4,
|
|
|
|
#GOGOSTART
|
|
1110201110202010,
|
|
1110201110222010,
|
|
1110201110202010,
|
|
1110201110222010,
|
|
500000000000000000000000000000000000000000000008,
|
|
0033,
|
|
30023002,
|
|
3000102210222010,
|
|
1110201110112010,
|
|
1110201110222010,
|
|
1110201110112010,
|
|
1110201110222010,
|
|
30112010,
|
|
1000101020001110,
|
|
30112010,
|
|
1000101020001110,
|
|
30111111,
|
|
31111111,
|
|
3022203022203000,
|
|
30440400,
|
|
600000000000000000000000000000000000000000000008,
|
|
|
|
#GOGOEND
|
|
|
|
|
|
#END
|
|
|
|
|
|
COURSE:Hard
|
|
LEVEL:3
|
|
BALLOON:12,27
|
|
SCOREINIT:1030
|
|
SCOREDIFF:360
|
|
|
|
|
|
#START
|
|
|
|
|
|
1212,
|
|
1212,
|
|
1212,
|
|
3344,
|
|
1212,
|
|
1212,
|
|
30040111,
|
|
02220400,
|
|
3,
|
|
30030030,
|
|
600000000000000000000000000000000000000000000008,
|
|
,
|
|
10010010,
|
|
10020200,
|
|
10010010,
|
|
10020200,
|
|
12,
|
|
12,
|
|
7,
|
|
8,
|
|
10101011,
|
|
10120200,
|
|
10101011,
|
|
10120200,
|
|
12,
|
|
12,
|
|
12,
|
|
12,
|
|
5,
|
|
000000000000000000000008000000000000000000000000,
|
|
1121,
|
|
0221,
|
|
1121,
|
|
0220,
|
|
3111,
|
|
3111,
|
|
600000000000000000000000000000000000000000000008,
|
|
,//38
|
|
|
|
#GOGOSTART
|
|
10201120,
|
|
10110201,
|
|
10201120,
|
|
10110201,
|
|
500000000000000000000000000000000000000000000008,
|
|
0033,
|
|
30022001,
|
|
10022011,
|
|
10201120,
|
|
10110201,
|
|
10201021,
|
|
10110201,
|
|
3021,
|
|
10002011,
|
|
3021,
|
|
10002011,
|
|
7,
|
|
,
|
|
8003,
|
|
30440400,
|
|
600000000000000000000000000000000000000000000008,
|
|
,
|
|
,//61
|
|
|
|
#BARLINEOFF
|
|
#GOGOEND
|
|
,
|
|
#END
|
|
|
|
COURSE:Normal
|
|
LEVEL:4
|
|
BALLOON:8,20
|
|
SCOREINIT:1120
|
|
SCOREDIFF:468
|
|
|
|
#START
|
|
12,
|
|
12,
|
|
12,
|
|
3344,
|
|
12,
|
|
12,
|
|
5,
|
|
000000000000000000000008000000000000000000000000,
|
|
3,
|
|
30030030,
|
|
600000000000000000000000000000000000000000000008,
|
|
,
|
|
11,
|
|
10020200,
|
|
11,
|
|
10020200,
|
|
12,
|
|
12,
|
|
7,
|
|
8,
|
|
1110,
|
|
10020200,
|
|
1110,
|
|
10020200,
|
|
12,
|
|
12,
|
|
12,
|
|
12,
|
|
5,
|
|
000000000000000000000008000000000000000000000000,
|
|
1111,
|
|
0220,
|
|
1111,
|
|
0220,
|
|
3,
|
|
33,
|
|
600000000000000000000000000000000000000000000008,
|
|
,//38
|
|
|
|
#GOGOSTART
|
|
1212,
|
|
10110200,
|
|
1212,
|
|
10110200,
|
|
500000000000000000000000000000000000000000000008,
|
|
0033,
|
|
30011001,
|
|
10011011,
|
|
1212,
|
|
10110200,
|
|
1212,
|
|
10110200,
|
|
3021,
|
|
10002011,
|
|
3021,
|
|
10002011,
|
|
7,
|
|
,
|
|
8003,
|
|
30330300,
|
|
600000000000000000000000000000000000000000000008,
|
|
,
|
|
,//61
|
|
|
|
#BARLINEOFF
|
|
#GOGOEND
|
|
,
|
|
#END
|
|
|
|
COURSE:Easy
|
|
LEVEL:3
|
|
BALLOON:6,15
|
|
SCOREINIT:1040
|
|
SCOREDIFF:655
|
|
|
|
#START
|
|
11,
|
|
11,
|
|
11,
|
|
500000000000000000000000000008000000000000000000,
|
|
11,
|
|
11,
|
|
5,
|
|
000000000000000000000008000000000000000000000000,
|
|
3,
|
|
30030030,
|
|
600000000000000000000000000000000000000000000008,
|
|
,
|
|
1,
|
|
2,
|
|
1,
|
|
2,
|
|
11,
|
|
22,
|
|
7,
|
|
8,
|
|
1110,
|
|
1,
|
|
1110,
|
|
1,
|
|
11,
|
|
22,
|
|
11,
|
|
22,
|
|
5,
|
|
000000000000000000000008000000000000000000000000,
|
|
11,
|
|
02,
|
|
11,
|
|
02,
|
|
3,
|
|
33,
|
|
600000000000000000000000000000000000000000000008,
|
|
,//38
|
|
|
|
#GOGOSTART
|
|
11,
|
|
1110,
|
|
11,
|
|
1110,
|
|
500000000000000000000000000000000000000000000008,
|
|
0033,
|
|
33,
|
|
3,
|
|
11,
|
|
1110,
|
|
11,
|
|
1110,
|
|
32,
|
|
12,
|
|
32,
|
|
12,
|
|
9,
|
|
09,
|
|
8,
|
|
30030300,
|
|
600000000000000000000000000000000000000000000008,
|
|
,
|
|
,//61
|
|
|
|
#BARLINEOFF
|
|
#GOGOEND
|
|
,
|
|
#END |