Files
ESE-ja-fix/02 Anime/Kirari☆彡Star☆Twinkle Pretty Cure/Kirari☆彡Star☆Twinkle Pretty Cure.tja
T
2023-06-15 19:15:39 -05:00

362 lines
3.0 KiB
Plaintext

//TJADB Project
TITLE:Kirari☄Star☆Twinkle Pretty Cure
TITLEJA:キラリ☆彡スター☆トゥインクルプリキュア
SUBTITLE:--Rie Kitagawa/Star☆Twinkle Pretty Cure
BPM:166
WAVE:Kirari☆彡Star☆Twinkle Pretty Cure.ogg
OFFSET:-0.403
DEMOSTART:60.930
COURSE:Oni
LEVEL:5
SCOREINIT:830
SCOREDIFF:260
#START
#BARLINEOFF
0000000
#GOGOSTART
3,
#BARLINEON
02221022,
12220303,
0020202010002011,
1020202010111000,
11201120,
1010202010222030,
01201125,
000000000000000008000000000000300000000000300000,
00001114,
0010201020111010,
0010201020111000,
1000201020111000,
33360080,
#GOGOEND
1,
00200200,
1,
20020020,
12,
12,
30303011,
01103030,
10201021,
10221220,
11211021,
10221220,
10201021,
10221220,
30030030,
03002020,
1202,
2202,
1202,
1202,
1202,
2020202000111000,
10210121,
10210121,
5,
000000000008000000000000000000200000200000200000,
6,
8000220
#GOGOSTART
3,
02221022,
1020202010222030,
02221022,
1020202010222030,
0212,
10201126,
00000008,
00020203,
02221022,
1020202010222030,
02221022,
1020202010222000,
11201220,
1010202010222030,
01201125,
000000000000000008000000000000300000000000300000,
00001114,
0010201020112010,
01201114,
#GOGOEND
#END
COURSE:Hard
LEVEL:4
SCOREINIT:950
SCOREDIFF:348
#START
#BARLINEOFF
0000000
#GOGOSTART
3,
#BARLINEON
,
10220303,
,
10220000,
10201120,
11220003,
01201114,
00000303,
00001114,
00202021,
01202020,
1222,
33330000,
#GOGOEND
1,
,
1,
20020020,
1,
12,
5,
000000000000000000000008000000000000000000000000,
1212,
10201220,
1212,
10201220,
1212,
10201220,
500000000000000000000000000000000000000000000008,
0022,
1202,
2202,
1202,
2202,
1202,
22220000,
10210120,
10210120,
5,
000000000008000000000000000000000000000000000000,
6,
8000220
#GOGOSTART
3,
02221020,
12220003,
02221020,
12220003,
0111,
10102226,
00000008,
00020203,
02221020,
12220003,
02221020,
12220003,
11201220,
11220003,
01201114,
00000303,
00001114,
,
00001114,
#GOGOEND
,
#END
COURSE:Normal
LEVEL:1
SCOREINIT:1200
SCOREDIFF:988
#START
#BARLINEOFF
0000000
#GOGOSTART
3,
#BARLINEON
,
00000003,
,
,
11,
10000003,
00000003,
00000303,
00001113,
,
,
1110,
3,
#GOGOEND
1,
,
1,
,
1,
1,
5,
000000000000000000000008000000000000000000000000,
11,
1,
11,
1,
11,
1,
500000000000000000000000000000000000000000000008,
,
1,
2,
11,
2,
1,
2,
11,
2,
5,
000000000008000000000000000000000000000000000000,
6,
8000000
#GOGOSTART
3,
0011,
10000003,
0011,
10000003,
0111,
10101006,
00000008,
00000003,
0011,
10000003,
0011,
10000003,
11,
10000003,
00000003,
00000303,
00001113,
,
00001113,
#GOGOEND
,
#END
COURSE:Easy
LEVEL:1
SCOREINIT:1530
SCOREDIFF:2710
#START
#BARLINEOFF
0000000
#GOGOSTART
3,
#BARLINEON
,
00000003,
,
,
1,
10000003,
00000003,
00000303,
00000003,
,
,
1,
,
#GOGOEND
1,
,
1,
,
1,
1,
5,
000000000000000000000008000000000000000000000000,
1,
,
1,
,
1,
1,
500000000000000000000000000000000000000000000008,
,
1,
2,
1,
2,
1,
2,
1,
1,
5,
000000000008000000000000000000000000000000000000,
6,
8000000
#GOGOSTART
3,
,
00000003,
,
00000003,
,
00000006,
00000008,
00000003,
,
00000003,
,
,
1,
10000003,
00000003,
00000303,
00000003,
,
00000003,
#GOGOEND
,
#END