Files
ESE-ja-fix/02 Anime/Kokoro Odoru/Kokoro Odoru.tja
T
2023-06-15 19:15:39 -05:00

555 lines
11 KiB
Plaintext

//TJADB Project
TITLE:Kokoro Odoru
TITLEJA:ココロオドル
SUBTITLE:--nobodyknows+/Superior Defender Gundam Force
BPM:113
WAVE:Kokoro Odoru.ogg
OFFSET:-2.255
DEMOSTART:8.258
COURSE:Oni
LEVEL:8
NOTESDESIGNER3:Takahashi
#START
000000000000000000000000000000000000000000000000,
100000200100000200000000100000200100000200000000,
000000100000000100000000100000000000000000300000,
#GOGOSTART
300000000100100100100000100200100100200000300000,
300000000100100100100000200200100100200000400000,
100000200000100200100100200000100000100200100200,
100000200100000100200000000000300000300000100100,
200000100100000200100100200000100100000200100100,
200000100100000200100100200000100100200000000000,
000000100000100000000000000000300000300000000100,
000000100100100100100000300000300000300000000000,
#GOGOEND
200000100200100100200000200100100200100100200000,
200000100200100100200000100000200200200000200000,
100000100100200000300000100000100100200000100000,
100000000000200000000000100000100100200000000000,
100000200000100100200100100000100200000200000000,
100000200100100000200100000100100000200000200000,
000100200000100100200000100000200100200000200000,
100000100000000100000100000100000100100000000000,
100000200000100000200000100100200200100000200000,
100000200000100000200000200200100200100000200000,
100000200000100000200000100100100100100000100000,
100100100000200200200000300000400000300000400000,
100100000100100100100000200000200200200000200000,
100000100000100000000000100200200100100200200000,
200100100200100100200000200100100200100100200100,
200100100200100100200100200100100200100000300000,
#GOGOSTART
300000000100100100100000100200100100200000300000,
300000000100100100100000200200100100200000400000,
100000100000100100100200100000100000100200100200,
100000200100000100200000000000300000300000100100,
200000100100000200100100200000100100000200100100,
200000100100000200100100200000100100200000000000,
000000100000100000000000000000300000300000000100,
000000100100100100100000300000300000300000000000,
#GOGOEND
#END
COURSE:Hard
LEVEL:5
STYLE:Double
SCOREINIT:900
SCOREDIFF:200
#START P1
,
,
1021000000000000,
0010010010000030,
#GOGOSTART
3001011010000030,
30202004,
1010111010101110,
2002002000303000,
1020111010201110,
1020111010111000,
01100330,
11103330,
#GOGOEND
1010111010111000,
0020022000200220,
1011103010111000,
2202200022022000,
1010111010120200,
1010111010100000,
1011100000222000,
0011100000002000,
12121210,
12121210,
0020002010111010,
0000222030403000,
1110100022202000,
1000000011111000,
1111100020020020,
2002002010000030,
#GOGOSTART
30202023,
3001011010000000,
1010111010101110,
2002002000303000,
1011102010111020,
1011102010000010,
10033000,
11103330,
#GOGOEND
#END
#START P2
,
,
0000000010210000,
0010010010000030,
#GOGOSTART
30202023,
3001011010000000,
1010111010101110,
2002002000303000,
1011102010111020,
1011102010000010,
10033000,
11103330,
#GOGOEND
0020022000200220,
1010111010111000,
2202200022022000,
1011103010111000,
1010111010100000,
1010111010102020,
1000001110000022,
2000001110002000,
12121210,
12121210,
1011101000200020,
1110000030403000,
1110100022202000,
1000000020020020,
2002002011111000,
1111100010000030,
#GOGOSTART
3001011010000030,
30202004,
1010111010101110,
2002002000303000,
1020111010201110,
1020111010111000,
01100330,
11103330,
#GOGOEND
#END
STYLE:Single
SCOREINIT:900
SCOREDIFF:200
#START
000000000000000000000000000000000000000000000000,
000000000000000000000000000000000000000000000000,
100000000100000000000000100000000100000000000000,
000000100000000100000000100000000000000000300000,
#GOGOSTART
300000000100000100100000100000000000000000300000,
300000000100000100100000200000000000200000000000,
100000100000100100100000100000100000100100100000,
200000000200000000200000000000300000300000000000,
100000200000100100100000100000200000100100100000,
100000200000100100100000100000100100100000000000,
000000100000100000000000000000300000300000000000,
100000100000100000000000300000300000300000000000,
#GOGOEND
100000100000100100100000100000100000100000000000,
100000100000100100100000200000200000200000000000,
100000100000100000300000100000100000100000000000,
100000000000200000000000100000100100100000000000,
100000100000100100100000100000100200000200000000,
100000100000100100100000100000100000200000200000,
000000100000000000100000000000100000000000100000,
000000100000000000100000100000100100100000000000,
100000200000100000200000100000200000100000000000,
100000200000100000200000100000200000100000000000,
100000200000100000200000100000200200200000000000,
100100100000200200200000300000400000300000000000,
100100100000100000000000200200200000200000000000,
100000000000000000000000100100100100100000000000,
200200200200200000000000100100100100100000000000,
100000000000100000000000100000100100100000300000,
#GOGOSTART
300000000100000100100000100000000000000000300000,
300000000100000100100000200000000000200000000000,
100000100000100100100000100000100000100100100000,
200000000200000000200000000000300000300000000000,
100000200000100100100000100000200000100100100000,
100000200000100100100000100000100100100000000000,
000000100000100000000000000000300000300000000000,
100000100000100000000000300000300000300000000000,
#END
COURSE:Normal
LEVEL:4
STYLE:Double
SCOREINIT:1030
SCOREDIFF:330
#START P1
,
,
12001000,
0010010010000030,
#GOGOSTART
30101003,
3220,
10111010,
10200330,
00001011,
1011,
01100330,
10103330,
#GOGOEND
10101110,
20201110,
10030000,
1212,
10102220,
1110,
12001200,
12001200,
12101020,
12101020,
10101110,
10103330,
11102020,
11102020,
11102220,
11102003,
#GOGOSTART
30202003,
3110,
11101010,
10200330,
10111000,
10111001,
10033000,
10103330,
#GOGOEND
#END
#START P2
,
,
10001200,
0010010010000030,
#GOGOSTART
30202003,
3110,
11101010,
10200330,
10111000,
10111001,
10033000,
10103330,
10101110,
20201110,
1212,
1300,
1110,
10102222,
00120012,
00120010,
10201210,
10201210,
10101110,
10103330,
10102220,
10102220,
11102220,
11102003,
#GOGOSTART
30101003,
3220,
10101110,
10200330,
00001011,
1011,
01100330,
10103330,
#GOGOEND
#END
STYLE:Single
SCOREINIT:960
SCOREDIFF:290
#START
000000000000000000000000000000000000000000000000,
000000000000000000000000000000000000000000000000,
100000200000000000000000100000200000000000000000,
000000100000000100000000100000000000000000300000,
#GOGOSTART
300000000000100000000000100000000000000000300000,
300000000000100000000000200000000000000000000000,
100000000000100000100000100000000000100000000000,
100000000000200000000000000000300000300000000000,
100000000000100000100000100000000000100000000000,
100000000000100000100000100000000000100000000000,
000000100000100000000000000000300000300000000000,
100000000000100000000000300000300000300000000000,
#GOGOEND
100000000000100000000000100000100000100000000000,
200000000000200000000000100000100000100000000000,
100000000000200000000000100000000000200000000000,
100000000000200000000000100000000000000000000000,
100000000000100000000000200000200000200000000000,
100000000000100000000000200000200000200000200000,
000000100000000000100000000000100000000000100000,
000000100000000000100000000000100000100000000000,
100000000000200000000000100000200000100000000000,
100000000000200000000000100000200000100000000000,
100000000000100000000000100000100000100000000000,
100000000000100000000000300000300000300000000000,
100000100000100000000000200000000000200000000000,
100000100000100000000000200000000000200000000000,
100000100000100000000000200000200000200000000000,
100000100000100000000000200000000000000000300000,
#GOGOSTART
300000000000100000000000100000000000000000300000,
300000000000100000000000200000000000000000000000,
100000000000100000100000100000000000100000000000,
100000000000200000000000000000300000300000000000,
100000000000100000100000100000000000100000000000,
100000000000100000100000100000000000100000000000,
000000100000100000000000000000300000300000000000,
100000000000100000000000300000300000300000000000,
#GOGOEND
#END
COURSE:Easy
LEVEL:4
STYLE:Double
SCOREINIT:1210
SCOREDIFF:530
#START P1
,
,
11,
10001003,
#GOGOSTART
30101003,
3,
11,
10000330,
0102,
0102,
01100330,
13,
#GOGOEND
1110,
2220,
1120,
12,
10001110,
1210,
11,
10101110,
1212,
1212,
10002220,
10002220,
1120,
1120,
11,
10102003,
#GOGOSTART
30000003,
3110,
0101,
00100330,
12,
10002001,
10033000,
1033,
#GOGOEND
#END
#START P2
,
,
11,
10001003,
30000003,
3110,
0101,
00100330,
12,
10002001,
10033000,
13,
#GOGOEND
1110,
2220,
12,
1120,
1210,
10001110,
11,
10111010,
10002220,
10002220,
1212,
1212,
1021,
1021,
11,
10102003,
#GOGOSTART
30101003,
3,
11,
10000330,
0102,
0102,
01100330,
1033,
#GOGOEND
#END
STYLE:Single
SCOREINIT:1090
SCOREDIFF:430
#START
000000000000000000000000000000000000000000000000,
000000000000000000000000000000000000000000000000,
100000000000000000000000100000000000000000000000,
100000000000000000000000100000000000000000300000,
#GOGOSTART
300000000000000000000000100000000000000000300000,
300000000000000000000000200000000000000000000000,
100000000000100000000000100000000000100000000000,
100000000000100000000000000000300000300000000000,
100000000000000000000000200000000000000000000000,
100000000000100000000000200000000000000000000000,
000000100000100000000000000000300000300000000000,
100000000000100000000000300000000000000000000000,
#GOGOEND
100000000000100000000000100000000000000000000000,
200000000000200000000000200000000000000000000000,
100000000000100000000000200000000000000000000000,
100000000000100000000000200000000000000000000000,
100000000000000000000000100000100000100000000000,
100000000000000000000000100000100000100000000000,
100000000000000000000000100000000000000000000000,
100000000000100000000000100000100000100000000000,
100000000000200000000000100000000000200000000000,
100000000000200000000000100000000000000000000000,
100000000000200000000000100000000000200000000000,
100000000000000000000000300000000000300000000000,
100000000000100000000000200000000000000000000000,
100000000000100000000000200000000000000000000000,
100000000000100000000000200000000000200000000000,
100000000000100000000000200000000000000000300000,
#GOGOSTART
300000000000000000000000100000000000000000300000,
300000000000000000000000200000000000000000000000,
100000000000100000000000100000000000100000000000,
100000000000100000000000000000300000300000000000,
100000000000000000000000200000000000000000000000,
100000000000100000000000200000000000000000000000,
000000100000100000000000000000300000300000000000,
100000000000100000000000300000000000000000000000,
#GOGOEND
#END