Files
ESE-ja-fix/02 Anime/Lapis Lazuli/Lapis Lazuli.tja
T
2023-06-15 19:15:39 -05:00

261 lines
8.5 KiB
Plaintext

//TJADB Project
TITLE:Lapis Lazuli
TITLEJA:ラピスラズリ
SUBTITLE:--Eir Aoi/The Heroic Legend of Arslan
SUBTITLEJA:「アルスラーン戦記」より
BPM:112
WAVE:Lapis Lazuli.ogg
OFFSET:-2.606
DEMOSTART:63.911
COURSE:Oni
LEVEL:7
SCOREINIT:860
SCOREDIFF:253
#START
#BARLINEOFF
000000000000000000000000000000200000200000200000,
#BARLINEON
200000000000200000000000200000000000200000200000,
200000200000200000200200000000000000000000200000,
200000200200000000200000200000200200000000000000,
200000200000200000200000200000000000000000200000,
200000000000200000000000200000000000200000200000,
200000200000200000200200000000000000000000200000,
200000200200000000200000200000200200000000000000,
300000000000300000000000300000000100200200200200,
#GOGOSTART
100000000100200000100000100100000100200000100000,
100000000100200000100000100100000100200000200200,
100000000100200000100000100100000100200000100000,
100200200100000200100200100000100100200000200000,
#GOGOEND
100000200200100000200000100000200000100000100000,
100000200200100000200000100000200000100100200000,
100000200200100000200000100000200000100000100000,
100000200200100000200000100000200000100100200000,
500000000008000000200000500000000008000000200000,
100000200000100000200200100000000000000000500000,
000000000008000000200000100000200000100100200000,
100000200200000100100000100000200100000200100000,
100000200000100200200100000100100000200000200000,
100200200200200000100100000100200200100000100100,
100000200000100200200100000100100000200000200000,
200200200200100000100100000100200200100000100100,
100000100100200000100100000200100000100100200000,
100100200100200000100100000200100100200000200000,
500000000008000000200000500000000000000008000000,
400000000400000000400000400000000000000000000000,
#GOGOSTART
300000000100200000100000100000000100200000100000,
100000100100200000100200100000100100200000200000,
100100200100100000200000100100200200100000200000,
100100200100100200100200200000200200000200100000,
300000000100200000100000100000000100200000100000,
100000100100200000100200100000100100200000200000,
100100200100100000200000100200200200100000200000,
200200200200100000200000100000200200100000100000,
100200200200200000300000300000000300000000300000,
600000000000000000000000000000000000000000000000,
000000000000000008000000100200200100200200100100,
200000000400000000400000400000000000000000000000,
#GOGOEND
#END
COURSE:Hard
LEVEL:5
BALLOON:8
SCOREINIT:860
SCOREDIFF:268
#START
#BARLINEOFF
000000000000000000000000000000200000200000200000,
#BARLINEON
200000000000200000000000200000000000200000200000,
200000200000200000200200000000000000000000200000,
200000200200000000200000200000200200000000000000,
200000200000200000200000200000000000000000200000,
200000000000200000000000200000000000200000200000,
200000200000200000200200000000000000000000200000,
200000200200000000200000200000200200000000000000,
300000000000300000000000300000000000200200200000,
#GOGOSTART
300000000100100000100000100000000100100000100000,
100000000100100000100000100000100100100000000000,
100000000100100000100000100000000100100000100000,
100000100100000100100000100000200200200000000000,
#GOGOEND
100000000000100000000000100000200000200000200000,
100000000000100000000000100000200000100000200000,
100000000000100000000000100000200000200000200000,
100000000000100000000000100000200000100000200000,
500000000000800000000000500000800000000000000000,
100000200000100000200000100000000000000000000000,
200000000000000000200000100000200000100000200000,
700000000000000000000000000000800000000000000000,
100000100000100100000100100000200000200000200000,
100100100000100000500000000000000800000000000000,
200000200000200200000200200000100000100000100000,
200200200000200000500000000000000800000000000000,
100000100000100000100100000000000000200000200000,
100100100000100000100100000000200000200000200000,
500000000000000800000000500000000000000800000000,
400000000400000000400000400000000000000000000000,
#GOGOSTART
300000000100100000100000100000000100100000100000,
100000000100100000100000100000200200200000100000,
100000200200000000100000100000200200000000000000,
100100100000100100100000400000000400000000400000,
300000000100100000100000100000000100100000100000,
100000000100100000100000100000200200200000100000,
100000200200000000100000100000200200000000000000,
100000200000100000200000100000200200200000200000,
100000200000100000300000300000000300000000300000,
600000000000000000000000000000000000000000000000,
000000000000000800000000000000000000000000000000,
400000000400000000400000400000000000000000000000,
#GOGOEND
#END
COURSE:Normal
LEVEL:3
BALLOON:34,6
SCOREINIT:1160
SCOREDIFF:538
#START
#BARLINEOFF
,
#BARLINEON
100000000000200000000000100000000000200000000000,
100000000000100000000000100000000000000000000000,
200000000000000000000000200000000000000000000000,
100000000000100000000000100000000000000000000000,
100000000000200000000000100000000000200000000000,
100000000000100000000000100000000000000000000000,
200000000000000000000000200000000000000000000000,
300000000000300000000000300000000000000000000000,
#GOGOSTART
9,
,
,
8,
#GOGOEND
300000000000000000000000100000000000100000000000,
100000000000000000000000100000000000200000000000,
100000000000000000000000100000000000100000000000,
100000000000000000000000100000000000200000000000,
100000000000000000000000100000000000000000000000,
100000000000100000000000100000000000000000000000,
100000000000000000000000100000000000100000000000,
700000000000000000000000000000800000000000000000,
100000000000100000000000100000000000100000100000,
500000000000000000000000000000000008000000000000,
200000000000200000000000200000000000200000200000,
500000000000000000000000000000000008000000000000,
100000000000100000000000100000000000100000100000,
100000000000100000000000100000000000200000200000,
500000000000000000000000000000000008000000000000,
300000000300000000300000300000000000000000000000,
#GOGOSTART
300000000000200000000000100000000000100000100000,
100000000000200000000000100000000000000000000000,
100000100000100000000000200000200000200000000000,
300000000000300000000000300000000000000000000000,
100000000000200000000000100000000000100000100000,
100000000000200000000000100000000000000000000000,
100000100000100000000000200000200000200000000000,
100000000000200000000000100000000000100000100000,
100000000000200000000000300000000300000000300000,
600000000000000000000000000000000000000000000000,
000000000000000008000000000000000000000000000000,
300000000300000000300000300000000000000000000000,
#GOGOEND
#END
COURSE:Easy
LEVEL:2
BALLOON:22,7,6
SCOREINIT:1290
SCOREDIFF:940
#START
#BARLINEOFF
,
#BARLINEON
100000000000000000000000100000000000000000000000,
100000000000100000000000100000000000000000000000,
200000000000000000000000200000000000000000000000,
100000000000100000000000100000000000000000000000,
100000000000000000000000100000000000000000000000,
100000000000100000000000100000000000000000000000,
200000000000000000000000200000000000000000000000,
300000000000300000000000300000000000000000000000,
#GOGOSTART
9,
,
,
8,
#GOGOEND
300000000000000000000000100000000000000000000000,
100000000000000000000000100000000000000000000000,
100000000000000000000000100000000000000000000000,
100000000000000000000000100000000000000000000000,
200000000000000000000000200000000000000000000000,
100000000000100000000000100000000000000000000000,
200000000000000000000000700000000000000000000000,
000000000000000000800000000000000000000000000000,
100000000000000000000000100000000000000000000000,
500000000000000000000000000008000000000000000000,
200000000000000000000000200000000000000000000000,
500000000000000000000000000008000000000000000000,
100000000000100000000000100000000000000000000000,
200000000000200000000000200000000000000000000000,
9,
8,
#GOGOSTART
300000000000000000000000100000000000000000000000,
100000000000100000000000100000000000000000000000,
200000000000000000000000200000000000000000000000,
300000000000300000000000300000000000000000000000,
100000000000000000000000100000000000000000000000,
100000000000100000000000100000000000000000000000,
200000000000000000000000200000000000000000000000,
100000000000000000000000100000000000100000000000,
100000000000000000000000600000000000000000000000,
000000000000000000000000000000000000000000000000,
000000000000000008000000000000000000000000000000,
300000000000000000000000300000000000000000000000,
#GOGOEND
#END