Files
ESE-ja-fix/02 Anime/Let’s! Fresh Pretty Cure! ~Hybrid Version~/Let’s! Fresh Pretty Cure! ~Hybrid Version~.tja
T
2023-06-15 19:15:39 -05:00

335 lines
13 KiB
Plaintext
Raw Blame History

This file contains ambiguous Unicode characters
This file contains Unicode characters that might be confused with other characters. If you think that this is intentional, you can safely ignore this warning. Use the Escape button to reveal them.
//TJADB Project
TITLE:Let’s! Fresh Pretty Cure! ~Hybrid Version~
TITLEJA:Let's!フレッシュプリキュア! ~Hybrid ver.~
SUBTITLE:--Mizuki Moie/Fresh Pretty Cure!
BPM:173
WAVE:Let’s! Fresh Pretty Cure! ~Hybrid Version~.ogg
OFFSET:-2.187
DEMOSTART:58.795
COURSE:Oni
LEVEL:4
BALLOON:16
SCOREINIT:730
SCOREDIFF:170
#START
#MEASURE 2/4
,
#MEASURE 4/4
300000000000000000000000300000000000000000000000,
#MEASURE 2/4
300000000000000000000000,
#GOGOSTART
#MEASURE 4/4
100000000000200000100100100000000000200000000000,
100000100000200000000000100000100000200000000000,
100000000000200000100100100000000000200000000000,
100000100000200000000000100000100000200000000000,
100000000000200000100100100000000000200000000000,
100000100000200000100000100000100000200000000000,
100000000000000000000000700000000000000000000000,
000000000000000000000000000000800000000000000000,
#GOGOEND
100000100000200000100000000000100000200000000000,
000000000000400000000000400000000000400000000000,
100000100000200000100000000000100000200000000000,
000000000000400000000000400000000000400000000000,
100100100000000000000000100000000000200000100000,
000000100000200000000000100000100000200000000000,
100100100000000000000000100000000000200000100000,
000000100000200000000000100000100000200000000000,
100000100000200000000000100000100000200000100000,
000000100000200000100000000000200000200000000000,
100000100000200000000000100000100000200000100000,
000000100000200000100000000000000000000000000000,
100100100000000000000000100000000000200000100000,
000000100000200000000000100000100000200000000000,
100100100000000000000000100000000000200000100000,
000000100000200000000000100000100000200000000000,
100000100000200000000000100000100000200000100000,
000000100000200000100000000000200000200000000000,
100000100000200000000000100000100000200000000000,
100000000000200000000000100000100000200000200000,
100000000000200000100000000000100000200000100000,
000000100000200000000000100000100000200000200000,
100000000000200000100000000000100000200000100000,
000000100000000000000000100000100000200000200000,
100000000000200000100000000000100000200000100000,
000000100000200000000000100000100000200000100000,
100000100000200000100000100000100000200000100000,
100000200000100000200000100000000000200000000000,
100000100000200000100000100000200000100100100000,
300000000000000000000000300000000000000000000000,
300000000000000000000000300000000000000000000000,
#GOGOSTART
100000000000200000100100100000100000200000100000,
100000200000100000200000100000200000100000200000,
100000000000200000100100100000100000200000100000,
100000100000100000100000100000200000100000200000,
100000000000200000100100100000100000200000100000,
100000200000100000200000100000200000100000200000,
300000000000000000300000300000000000400000000000,
600000000000000000000008000000000000000000000000,
100000000000200000100100100000100000400000100000,
100000200000100000200000100000200000100000200000,
100000000000200000100100100000100000400000100000,
100000100000100000100000100000200000100000200000,
100000000000200000100100100000100000400000100000,
100000200000100000200000100000200000100000200000,
300000000000000000300000300000000000400000000000,
300000000000000000000000300000000000000000300000,
100000100000200000100000000000300000000000300000,
000000400000300000000000000000000000000000000000,
#GOGOEND
#END
COURSE:Hard
LEVEL:4
SCOREINIT:900
SCOREDIFF:240
#START
000000000000000000000000300000000000000000000000,
300000000000000000000000300000000000000000000000,
#GOGOSTART
100000000000000000100000100000000000200000000000,
100000000000200000000000100000000000200000000000,
100000000000000000100000100000000000200000000000,
100000000000200000000000100000000000200000000000,
100000000000000000100000100000000000200000000000,
300000000000000000000000300000000000300000000000,
300000000000000000000000600000000000000000000000,
000000000000000000800000000000000000000000000000,
#GOGOEND
100000000000000000000000000000000000100000000000,
000000000000200000000000200000000000200000000000,
100000000000000000000000000000000000100000000000,
000000000000200000000000200000000000200000000000,
100000100000000000000000000000000000100000100000,
000000000000200000000000000000100000100000000000,
100000100000000000000000000000000000100000100000,
000000100000200000000000000000200000200000000000,
100000100000200000000000100000100000200000100000,
000000200000200000000000000000000000000000000000,
100000100000200000000000100000100000200000100000,
000000200000000000200000000000000000000000000000,
100000100000000000000000000000000000100000100000,
000000000000200000000000000000100000100000000000,
100000100000000000000000000000000000100000100000,
000000000000200000000000000000100000200000000000,
100000100000200000000000100000100000200000100000,
000000200000200000000000000000000000000000000000,
100000100000200000000000100000100000200000000000,
200000000000200000000000000000000000000000000000,
100000000000000000100000200000100000000000100000,
000000000000000000000000100000000000200000000000,
100000000000000000100000200000100000000000100000,
000000100000000000000000000000000000000000000000,
100000000000000000100000200000100000000000100000,
000000000000000000000000100000000000200000000000,
100000100000200000000000100000100000200000000000,
100000100000200000000000100000000000200000000000,
100000100000200000000000100000100000200000000000,
300000000000000000000000300000000000000000000000,
300000000000000000000000300000000000000000000000,
#GOGOSTART
100000000000000000100000100000000000200000000000,
100000100000200000000000100000100000200000000000,
100000000000000000100000100000000000200000000000,
100000100000200000000000100000100000200000000000,
100000000000000000100000100000000000200000000000,
300000000000400000000000300000000000400000000000,
300000000000000000000000600000000000000000000000,
800000000000000000000000000000000000000000000000,
100000000000000000100000100000000000400000000000,
100000100000200000000000100000100000200000000000,
100000000000000000100000100000000000400000000000,
100000100000200000000000100000100000200000000000,
100000000000000000100000100000000000400000000000,
300000000000400000000000300000000000400000000000,
300000000000000000000000300000000000400000000000,
300000000000000000000000300000000000000000000000,
600000000000000000000000000000000000000000000000,
000000000000000000800000000000000000000000000000,
#GOGOEND
#END
COURSE:Normal
LEVEL:3
BALLOON:10,10,8
SCOREINIT:1210
SCOREDIFF:420
#START
000000000000000000000000300000000000000000000000,
300000000000000000000000300000000000000000000000,
#GOGOSTART
100000000000000000000000200000000000000000000000,
100000000000100000000000100000000000000000000000,
100000000000000000000000200000000000000000000000,
200000000000200000000000200000000000000000000000,
100000000000000000000000200000000000000000000000,
100000000000100000000000100000000000000000000000,
300000000000000000000000600000000000000000000000,
000000000000000000800000000000000000000000000000,
#GOGOEND
700000000000000000000000000000000000000000000000,
000000000000000000000000000000800000000000000000,
700000000000000000000000000000000000000000000000,
000000000000000000000000000000800000000000000000,
100000000000000000000000100000000000100000000000,
000000000000200000000000000000000000000000000000,
100000000000000000000000100000000000100000000000,
000000000000200000000000000000000000000000000000,
100000000000200000000000000000000000200000000000,
000000000000200000000000000000000000000000000000,
100000000000200000000000000000000000200000000000,
000000000000200000000000000000000000000000000000,
100000000000000000000000100000000000100000000000,
000000000000200000000000000000000000000000000000,
100000000000000000000000100000000000100000000000,
000000000000200000000000000000000000000000000000,
100000000000200000000000000000000000200000000000,
000000000000200000000000000000000000000000000000,
100000000000200000000000000000000000200000000000,
000000000000200000000000000000000000000000000000,
100000000000000000000000200000000000000000000000,
100000000000000000000000100000000000100000000000,
100000000000000000000000200000000000000000000000,
100000000000000000000000100000000000100000000000,
100000000000000000000000200000000000000000000000,
100000000000000000000000000000000000000000000000,
100000000000000000000000100000000000000000000000,
000000000000000000000000100000000000100000000000,
100000000000000000000000500000000000000000000000,
800000000000000000000000300000000000000000000000,
300000000000000000000000300000000000000000000000,
#GOGOSTART
100000000000000000000000200000000000000000000000,
100000000000100000000000100000000000000000000000,
100000000000000000000000200000000000000000000000,
200000000000200000000000200000000000000000000000,
100000000000000000000000200000000000000000000000,
100000000000100000000000100000000000000000000000,
300000000000000000000000300000000000000000000000,
000000000000000000000000000000000000000000000000,
100000000000000000000000200000000000100000000000,
100000000000100000000000100000000000000000000000,
100000000000000000000000200000000000200000000000,
200000000000200000000000200000000000000000000000,
100000000000000000000000200000000000100000000000,
100000000000100000000000100000000000000000000000,
300000000000000000000000300000000000000000000000,
300000000000000000000000300000000000000000000000,
700000000000000000000000000000000000000000000000,
000000800000000000000000000000000000000000000000,
#END
COURSE:Easy
LEVEL:3
BALLOON:5,6,6,5
SCOREINIT:1140
SCOREDIFF:500
#START
#MEASURE 2/4
000000000000000000000000,
#MEASURE 4/4
700000000000000000000000000000000000000000800000,
#MEASURE 2/4
000000000000000000000000,
#GOGOSTART
#MEASURE 4/4
100000000000000000000000000000000000000000000000,
100000000000100000000000100000000000000000000000,
100000000000000000000000000000000000000000000000,
200000000000200000000000200000000000000000000000,
100000000000000000000000000000000000000000000000,
300000000000000000000000300000000000000000000000,
300000000000000000000000600000000000000000000000,
000000000000000000800000000000000000000000000000,
#GOGOEND
700000000000000000000000000000000000000000000000,
000000000000000000000000000000800000000000000000,
700000000000000000000000000000000000000000000000,
000000000000000000000000000000800000000000000000,
100000000000000000000000100000000000100000000000,
000000000000000000000000000000000000000000000000,
100000000000000000000000100000000000100000000000,
000000000000000000000000000000000000000000000000,
200000000000200000000000000000000000000000000000,
200000000000000000000000000000000000200000000000,
200000000000000000000000000000000000000000000000,
000000000000000000000000000000000000000000000000,
100000000000000000000000100000000000100000000000,
000000000000000000000000000000000000000000000000,
100000000000000000000000100000000000100000000000,
000000000000000000000000000000000000000000000000,
200000000000200000000000000000000000000000000000,
200000000000000000000000000000000000200000000000,
200000000000000000000000200000000000000000000000,
000000000000000000000000000000000000000000000000,
100000000000000000000000200000000000000000000000,
100000000000000000000000000000000000000000000000,
100000000000000000000000200000000000000000000000,
100000000000000000000000000000000000000000000000,
100000000000000000000000200000000000000000000000,
100000000000000000000000100000000000100000000000,
500000000000000000000000000000000000000000800000,
000000000000000000000000100000000000100000000000,
500000000000000000000000000000000000000000800000,
000000000000000000000000000000000000000000000000,
000000000000000000000000000000000000000000000000,
#GOGOSTART
100000000000000000000000000000000000000000000000,
100000000000000000000000100000000000000000000000,
100000000000000000000000000000000000000000000000,
200000000000000000000000200000000000000000000000,
100000000000000000000000000000000000000000000000,
300000000000000000000000300000000000000000000000,
600000000000000000000000000000000000000000800000,
000000000000000000000000000000000000000000000000,
100000000000000000000000000000000000000000000000,
100000000000100000000000100000000000000000000000,
100000000000000000000000000000000000000000000000,
200000000000200000000000200000000000000000000000,
100000000000000000000000000000000000000000000000,
300000000000000000000000300000000000000000000000,
300000000000000000000000000000000000000000000000,
300000000000000000000000300000000000000000000000,
9,
0800,
#GOGOEND
#END