Files
ESE-ja-fix/02 Anime/NATSU☆Shiyouze!/NATSU☆Shiyouze!.tja
T
2023-06-15 19:05:10 -05:00

354 lines
3.4 KiB
Plaintext

//TJADB Project
TITLE:NATSU☆Shiyouze!
TITLEJA:NATSU☆しようぜ!
SUBTITLE:--IDOLiSH7 feat. TRIGGER/IDOLiSH7
SUBTITLEJA:IDOLiSH7 feat.TRIGGER 「アイドリッシュセブン」より
BPM:150
WAVE:NATSU☆Shiyouze!.ogg
OFFSET:-1.721
DEMOSTART:72.096
COURSE:Oni
LEVEL:6
BALLOON:25
SCOREINIT:630
SCOREDIFF:188
#START
33033033,
03302020,
33033033,
03302222,
33033033,
03302020,
33033033,
0020202020112000,//8
#GOGOSTART
1414,
1020202020002011,
10401042,
0020202020002011,
1414,
1020202020002011,
10401042,
02222020,//13
#GOGOEND
1000200010020010,
0010201020020010,
1000200010020010,
0010202010020030,
00200101,
0010201020020030,
0010202010020010,
0010202010020010,
1010201010220010,
1010201010220030,
0010201010020010,
01221120,
1110202011102020,
1110202010102020,
0010201010020010,
01211040,
10211121,
01020201,
7,
0008,
10211121,
01020200,
03303304,
03330400,
1110111020002000,
1110111020202000,
1110111020202010,
0110222020304000,//44
#GOGOSTART
11211021,
0010201010222000,
11211021,
0010201010222000,
10221021,
0010202010222000,
03303304,
04443040,
11211021,
0010201010222000,
11211021,
0010201010222000,
10221021,
0010202010222000,
03303304,
04343040,//60
#GOGOEND
10112211,
01020200,//62
#GOGOSTART
03304403,
04433040,//64
#GOGOEND
#END
COURSE:Hard
LEVEL:3
BALLOON:22,20,22,22
SCOREINIT:630
SCOREDIFF:170
#START
33033033,
03302020,
33033033,
03302220,
33033033,
03302020,
33033033,
02222020,//8
#GOGOSTART
0303,
02222020,
00300032,
02222020,
0303,
02222020,
00300032,
02222000,//13
#GOGOEND
1212,
11201020,
1212,
11201000,
1212,
11201020,
1212,
11201000,
10201120,
10201120,
10201120,
1210,
10201120,
10201120,
10201120,
1210,
10111020,
10111020,
7,
0008,
10111020,
10111020,
07000000,
0008,
3022,
30002220,
30002226,
000000000000000000000008000000000000400000000000,//44
#GOGOSTART
10112001,
01102000,
10112011,
01102000,
10112011,
01102200,
7,
0008,
10112001,
01102000,
10112011,
01102000,
10112011,
01102200,
7,
0008,//60
#GOGOEND
10222022,
02020200,//62
#GOGOSTART
03304403,
04433040,//64
#GOGOEND
,
#END
COURSE:Normal
LEVEL:2
BALLOON:14,13,14,14
#START
30030030,
03000000,
30030030,
03000000,
30030030,
03000000,
30030030,
,//8
#GOGOSTART
0303,
0222,
0303,
0222,
0303,
0222,
0303,
0220,//13
#GOGOEND
11,
1110,
11,
1110,
11,
1110,
11,
1110,
12,
1120,
12,
1120,
12,
1120,
12,
1120,
11,
1,
7,
0008,
11,
12,
07000000,
0008,
3022,
3022,
30002026,
000000000000000000000008000000000000000000000000,//44
#GOGOSTART
1110,
1120,
1111,
1120,
12,
1120,
7,
0008,
1110,
1120,
1111,
1120,
12,
1120,
7,
0008,//60
#GOGOEND
12,
1,//62
#GOGOSTART
03003003,
0334,//64
#GOGOEND
,
#END
COURSE:Easy
LEVEL:2
BALLOON:12,7,14,14,9
#START
10010010,
01000000,
10010010,
01000000,
10010010,
01000000,
10010010,
,//8
#GOGOSTART
0303,
,
0303,
,
0303,
,
0303,
,//13
#GOGOEND
1,
1,
11,
1,
1,
1,
11,
1,
11,
1,
22,
2,
11,
1,
22,
2,
11,
1,
7,
0008,
11,
1,
07000000,
0008,
3,
3,
30000006,
000000000000000000000008000000000000000000000000,//44
#GOGOSTART
11,
1,
11,
1,
2,
2,
7,
0008,
11,
1,
11,
1,
2,
2,
7,
0008,//60
#GOGOEND
1,
1,//62
#GOGOSTART
07000000,
0083,//64
#GOGOEND
,
#END