Files
ESE-ja-fix/02 Anime/NEXT LEVEL/NEXT LEVEL.tja
T
2023-06-15 19:15:39 -05:00

426 lines
11 KiB
Plaintext

//TJADB Project
TITLE:NEXT LEVEL
TITLEJA:NEXT LEVEL
SUBTITLE:--Cheru Watanabe feat. YU-KI/Kamen Rider Kabuto
SUBTITLEJA:「仮面ライダーカブト」より
BPM:172
WAVE:NEXT LEVEL.ogg
OFFSET:-1.635
DEMOSTART:45.551
COURSE:Oni
LEVEL:6
SCOREINIT:930
SCOREDIFF:190
#START
100000000000000000100000100000200000000000000000,
000000000000000000000000100000000100000000200000,
000000100000200000000000000000000000000000000000,
200000500000000000000000000000000000000008000000,
100000000000200000000100100000200000000000100000,
000000200000200000000000100000000100000000200000,
000000100000200000000100100000100000200000100000,
200000500000000000000000000000000000000000000000,
000000000000000000000000000000000008000000000000,
100000100000200000100100100000100000200000100000,
100000000000200000000100100000100000200000100000,
100000100000200000100100100000100000200000100000,
100000000000200000000100100000100000200000100000,
100000200000100000000000100000000000100000000000,
100000000000100000100000000000100000000000100000,
100000000000000000100000100000000000000000000000,
100000100000200000100000300000000000300000000000,
100000100000200000100100100000100000200000100000,
100000000000200000000100100000100000200000100000,
100000100000200000100100100000100000200000100000,
100000000000200000000100100000100000200000100000,
100000200000100000000000100000000000100000000000,
100000000000100000100000000000100000200000100000,
100000000000200000000100100000100000200000100000,
000000100000200000100000100100100000200000100100,
100000000000200000000100100000100000200000100000,
000000100000200000100000100100100000200000100100,
100000000000200000100100100000100000200000100100,
100000100000200000100100100000100000200000100100,
100000000000100000100000100100100000200000100100,
#MEASURE 6/4
100000100000200000100000000000100000200000000000500000000000000008000000,
#GOGOSTART
#MEASURE 4/4
100000100000200000000100200000100000200000100100,
100000100000200000000100200000100000200000100100,
100000100000200000100100100000100000200000100000,
000000100000100000000000100000000000100000000000,
100000100000200000100100200000100000200100200000,
100000100000200000100100200000100000200100200000,
100000100000200000100000000000300000000000300000,
000000100000200000000100200000100000200100200000,
100000100000200000000100200000100000200000100100,
100000100000200000000100200000100000200000100100,
100000100000200000100100100000100000200000100000,
000000100000100000000000100000000000100000000000,
100000100000200000100100200000100000200100200000,
100000100000200000100100200000100000200100200000,
100000200000200000100000000000100000000000100000,
000000100000200000100000200000200000100000200000,
300000200200200000300000200200200000300000100100,
000000100000000000600000000000000000000000000000,
000000000000000000000008000000000000000000000000,
#GOGOEND
#END
COURSE:Hard
LEVEL:5
SCOREINIT:900
SCOREDIFF:240
#START
10011200,
0000000010010020,
01200000,
200000500000000000000000000000000000000008000000,
#SECTION
#BRANCHSTART p,75,90
#N
10201100,
0000000010010020,
01100000,
15000000,
000000000000000000000000000000000008000000000000,
#E
10201200,
0000000010010020,
01200000,
15000000,
000000000000000000000000000000000008000000000000,
#M
1000200110200010,
0010100010010020,
01200000,
15000000,
000000000000000000000000000000000008000000000000,
#SECTION
#BRANCHSTART p,75,90
#N
11201020,
10201110,
11201020,
11101020,
12101010,
10110101,
10011000,
11203030,
#E
11201020,
10201120,
11201020,
10201120,
12101010,
10110101,
10011000,
11203030,
#M
11201021,
10201120,
11201021,
10201120,
12101010,
10110101,
10011000,
11213030,
#SECTION
#BRANCHSTART p,75,90
#N
11201020,
10201110,
11201020,
11101020,
12101010,
10110100,
#E
11201020,
10201120,
11201020,
10201120,
12101010,
10110100,
#M
11201021,
10201120,
11201021,
10201120,
12101010,
10110100,
#SECTION
#BRANCHSTART p,75,90
#N
10201001,
02220000,
10201022,
02220000,
1202,
1202,
10150000,
#MEASURE 6/4
000000000000000000000000000008000000000000000000000000000000000000000000,
#E
10201001,
02220120,
10201012,
02220120,
10210020,
1011,
20250000,
#MEASURE 6/4
000000000000000000000000000008000000000000000000000000000000000000000000,
#M
10201121,
01211120,
10201121,
01211120,
10210120,
10210120,
10150000,
#MEASURE 6/4
000000000000000000000000000008000000000000000000000000000000000000000000,
#GOGOSTART
#MEASURE 4/4
#SECTION
#BRANCHSTART p,75,90
#N
10201120,
10201110,
10110101,
0022,
10110000,
1122,
11110303,
0011,
#E
11201120,
11201120,
10110101,
02202020,
10201200,
1122,
11110303,
0011,
#M
1010201110102000,
1010201110102000,
11210121,
01101010,
12102101,
1122,
12103030
#SECTION
#BRANCHSTART p,75,90
#N
10201120,
10201110,
10110101,
0022,
10110000,
10010010,
100000100000100000500000000000000000000000000008,
00010111,
30030030,
03060000,
000000000000000008000000000000000000000000000000,
#E
11201120,
11201120,
10110101,
02202020,
10201200,
10010020,
100000100000100000500000000000000000000000000008,
00010111,
30030030,
03060000,
000000000000000008000000000000000000000000000000,
#M
1010201110102000,
1010201110102000,
11210121,
01101010,
12102100,
10010021,
12210303,
02012211,
30030030,
03060000,
000000000000000008000000000000000000000000000000,
#BRANCHEND
#GOGOEND
#END
COURSE:Normal
LEVEL:3
BALLOON:10
SCOREINIT:1380
SCOREDIFF:490
#START
300000000000000000100000100000100000000000000000,
000000000000000000000000100000000000000000000000,
000000000000300000000000000000000000000000000000,
500000000000000000000000000000800000000000000000,
100000000000000000000000100000100000000000000000,
000000000000000000000000100000000000000000100000,
000000000000000000000000000000000000000000000000,
500000000000000000000000000000000000000000000000,
000000000000000000000000800000000000000000000000,
100000000000000000000000100000000000100000000000,
100000000000000000000000100000000000000000000000,
100000000000000000000000100000000000100000000000,
100000000000000000000000100000000000100000000000,
000000000000000000000000100000000000100000000000,
100000000000100000000000000000000000000000000000,
500000000000000000000000000000000000800000000000,
000000000000000000000000000000000000000000000000,
100000000000000000000000100000000000100000000000,
100000000000000000000000100000000000000000000000,
100000000000000000000000100000000000100000000000,
100000000000000000000000100000000000100000000000,
000000000000000000000000100000000000000000000000,
100000000000000000000000000000000000000000000000,
100000000000100000000000100000000000000000000000,
100000000000000000000000200000000000000000000000,
100000000000100000000000100000000000000000000000,
100000000000000000000000200000000000000000000000,
100000000000000000000000100000000000100000000000,
100000000000000000000000100000000000100000000000,
100000000000000000700000000000000000000000000000,
#MEASURE 6/4
000000000000000000800000000000000000000000000000000000000000000000000000,
#MEASURE 4/4
#GOGOSTART
300000000000000000300000000000000000000000000000,
300000000000000000300000000000000000000000000000,
300000000000000000000000300000000000300000000000,
300000000000000000000000100000000000100000000000,
100000000000000000000000200000000000000000000000,
100000000000100000000000100000000000100000000000,
100000000000000000000000000000300000000000300000,
000000000000000000000000000000000000000000000000,
300000000000000000300000000000000000000000000000,
300000000000000000300000000000000000000000000000,
300000000000000000000000300000000000300000000000,
300000000000000000000000100000000000100000000000,
100000000000000000000000200000000000000000000000,
100000000000000000000000200000000000000000000000,
100000000000000000000000000000000000000000000000,
100000000000000000000000100000100000100000000000,
500000000000000000000000000000000000000000000000,
000000000000000000000008000000000000000000000000,
#GOGOEND
#END
COURSE:Easy
LEVEL:4
BALLOON:8
SCOREINIT:1470
SCOREDIFF:850
#START
300000000000000000000000000000300000000000000000,
000000000000000000000000000000000000000000000000,
000000000000300000000000000000000000000000000000,
300000000000000000000000000000000000000000000000,
100000000000000000000000100000000000000000000000,
000000000000000000000000100000000000000000100000,
000000000000000000000000000000000000000000000000,
500000000000000000000000000000000000000000000000,
000000000000000000000000000800000000000000000000,
100000000000000000000000000000000000000000000000,
100000000000000000000000100000000000000000000000,
100000000000000000000000000000000000000000000000,
100000000000000000000000100000000000100000000000,
000000000000000000000000100000000000100000000000,
100000000000000000000000000000000000000000000000,
500000000000000000000000000000000800000000000000,
000000000000000000000000000000000000000000000000,
100000000000000000000000000000000000000000000000,
100000000000000000000000100000000000000000000000,
100000000000000000000000000000000000000000000000,
100000000000000000000000100000000000100000000000,
000000000000000000000000100000000000000000000000,
100000000000000000000000000000000000000000000000,
100000000000100000000000100000000000000000000000,
100000000000000000000000000000000000000000000000,
100000000000100000000000100000000000000000000000,
100000000000000000000000000000000000000000000000,
100000000000000000000000100000000000000000000000,
100000000000000000000000100000000000000000000000,
100000000000000000700000000000000000000000000000,
000000000000000000000800000000000000000000000000,
#GOGOSTART
300000000000000000000000000000000000000000000000,
300000000000000000000000000000000000000000000000,
300000000000000000000000300000000000000000000000,
300000000000000000000000000000000000000000000000,
100000000000100000000000100000000000000000000000,
100000000000000000000000200000000000000000000000,
100000000000000000000000000000000000000000000000,
000000000000000000000000000000000000000000000000,
300000000000000000000000000000000000000000000000,
300000000000000000000000000000000000000000000000,
300000000000000000000000300000000000000000000000,
300000000000000000000000000000000000000000000000,
100000000000100000000000100000000000000000000000,
100000000000000000000000200000000000000000000000,
100000000000000000000000000000000000000000000000,
000000000000000000000000000000000000000000000000,
500000000000000000000000000000000000000000000000,
000000000000000000000008000000000000000000000000,
#GOGOEND
#END