Files
ESE-ja-fix/02 Anime/SHINE!! KiraKira☆Pretty Cure A La Mode/SHINE!! KiraKira☆Pretty Cure A La Mode.tja
T
2023-06-15 19:00:23 -05:00

333 lines
3.6 KiB
Plaintext

//TJADB Project
TITLE:SHINE‼ KiraKira☆Pretty Cure A La Mode
TITLEJA:SHINE!! キラキラ☆プリキュアアラモード
SUBTITLE:--Yuki Komagata/KiraKira☆Pretty Cure A La Mode
BPM:174
WAVE:SHINE!! KiraKira☆Pretty Cure A La Mode.ogg
OFFSET:-1.602
DEMOSTART:59.511
COURSE:Oni
LEVEL:6
BALLOON:18
SCOREINIT:740
SCOREDIFF:205
#START
5,
,
000000000000000000000000000000000008000000000000,
30203203,
0040001022102020,
1212,
1000201000112020,
30203203,
0020001022102000,
3020202030222030,
03300000,
7,
08,
1010222010102010,
0022202220201010,
0022102210002000,
12121210,
1000201000222020,
10221221,
0022202010201000,
12121210,
1000201000222020,
10201221,
0020002210002000,
1000202010222010,
0010001022102000,
1000202010222010,
0010001022102000,
1000202010222010,
0010001022102000,
1000200011102000,
1000200011102000,
1000200011102010,
03333000,
#GOGOSTART
1110200011102000,
1110201000102000,
1110200011102000,
1110201000102000,
2210200011102000,
2210200011102000,
3033,
400000400000400000600000000000000008000000000000,
1110200011102000,
1110201000102000,
1110200011102000,
1110201000400000,
2210200011102000,
2210200011102000,
500000000000000000000008000000000000400000000000,
3333,
33044033,
04403000,
#GOGOEND
30203203,
0040001022102020,
1212,
1000201000112020,
30203203,
0020001022102000,
3020202030222030,
03300000,
600000000000000000000000000000000000000000000008,
03034443,
#END
COURSE:Hard
LEVEL:4
BALLOON:16,16
SCOREINIT:1000
SCOREDIFF:335
#START
5,
,
000000000000000000000000000000000008000000000000,
30301103,
04000000,
1212,
10110000,
30301103,
03011020,
30203003,
03300000,
7,
,
8,
,
,
1112,
10220000,
10101022,
02221020,
1112,
10220000,
10101022,
02021020,
10022011,
01012010,
10022011,
01012010,
10022011,
01012010,
10201120,
10201120,
5,
000000000000000000000008000000000000000000000000,
#GOGOSTART
1212,
10210020,
1212,
10210020,
10201120,
10020020,
1033,
600000000000000000000000000000000008000000000000,
1212,
10210020,
1212,
10210400,
11201120,
10220110,
500000000000000000000008000000000000400000000000,
3333,
6,
000000000000000000000008000000000000000000000000,
#GOGOEND
30301103,
04000000,
1212,
10210000,
30301103,
03011020,
30203003,
03300040,
7,
000000000000000000000000000000000000000000000008,
#END
COURSE:Normal
LEVEL:3
BALLOON:11,11
SCOREINIT:1300
SCOREDIFF:900
#START
5,
,
000000000000000000000000000000000008000000000000,
30003003,
,
11,
1,
30003003,
,
30003003,
03300000,
7,
,
8,
,
,
1110,
1,
10101001,
,
1110,
1,
10101001,
,
12,
02,
1,
1,
12,
02,
1,
11,
5,
000000000000000000000008000000000000000000000000,
#GOGOSTART
11,
1,
1011,
1,
1110,
1110,
1033,
600000000000000000000000000000000008000000000000,
11,
1,
1011,
1,
1120,
1120,
1003,
3333,
6,
000000000000000000000008000000000000000000000000,
#GOGOEND
30003003,
,
11,
1,
30003003,
,
30003003,
03300000,
7,
000000000000000000000000000000000000000000000008,
#END
COURSE:Easy
LEVEL:2
BALLOON:8,8
SCOREINIT:1470
SCOREDIFF:1660
#START
5,
,
000000000000000000000000000000000008000000000000,
33,
,
1,
1,
33,
,
33,
,
7,
,
8,
,
,
1,
1,
1,
,
1,
1,
1,
,
1,
01,
1,
2,
1,
01,
1,
2,
5,
000000000000000000000008000000000000000000000000,
#GOGOSTART
11,
1,
1,
1,
11,
1,
22,
3,
11,
1,
1,
1,
11,
1,
2003,
3,
6,
000000000000000000000008000000000000000000000000,
#GOGOEND
33,
,
11,
1,
33,
,
33,
,
7,
000000000000000000000000000000000000000000000008,
#END