Files
ESE-ja-fix/02 Anime/Snow halation/Snow halation.tja
T
2023-06-15 19:15:39 -05:00

367 lines
4.2 KiB
Plaintext

//TJADB Project
TITLE:Snow halation
TITLEJA:Snow halation
SUBTITLE:--μ’s/Love Live!
SUBTITLEJA:μ's 「ラブライブ!」より
BPM:173
WAVE:Snow halation.ogg
OFFSET:-12.596
DEMOSTART:51.434
COURSE:Oni
LEVEL:6
BALLOON:7
SCOREINIT:690
SCOREDIFF:193
#START
2,
2,
20020000,
,
20000200,
20020200,
2,
3030000030301111,
10101011,
10101011,
1115,
000000000000000000000008000000000000100000200000,
10101011,
10101011,
500000000000000000000000000000000008000000000000,
1000202010202011,
10102012,
00102110,
10102012,
0020001120102000,
1000200011102000,
1110201000102000,
1000200011102000,
1110201000102000,
1000200011102010,
0010201000102011,
20202121,
44070008,
#GOGOSTART
1010200011102010,
0010201011102000,
1010202011102020,
1110202010102220,
1010200011102010,
0010201011102020,
500000000008000000200000500000000008000000300000,
300000000000400000400000000000600000000008000000,
1010200011102010,
0010201011102000,
1010202011102020,
1110202010102220,
1010200011102010,
0010201011102020,
500000000008000000200000500000000008000000300000,
300000000000400000400000000000600000000008000000,
#GOGOEND
10102021,
1000201020221000,
10112021,
1020201020221000,
1000101020102210,
33000140,
#GOGOSTART
1000200011102010,
1110201000202000,
1000200011102010,
1110201000222000,
1000200011102010,
1110201000202000,
1000200011102010,
1010004000101110,
20202121,
2000201020112010,
20202121,
2011201020102210,
20202121,
2000201020112010,
2000201020112010,
4040000040401110,
#GOGOEND
0400,
#END
COURSE:Hard
LEVEL:5
SCOREINIT:770
SCOREDIFF:240
#START
2,
2,
2,
,
2,
2,
2,
33003300,
10101011,
10101011,
1225,
000000000000000000000008000000000000000000000000,
10101011,
10101011,
5,
000000000000000000000008000000000000000000000000,
10102011,
0120,
10102011,
0120,
10201120,
10210120,
10201120,
10210120,
10201021,
01010105,
000000000000000000000000000000000008000000000000,
30030000,
#GOGOSTART
10201021,
01201120,
10210120,
1000202011102000,
10201025,
000000000000000000000008000000000000200000200000,
10021003,
30440400,
10201021,
01201120,
10210120,
1000202011102000,
10201025,
000000000000000000000008000000000000200000200000,
10021003,
30440400,
#GOGOEND
0122,
10210010,
10221022,
12210010,
10221101,
33000140,
#GOGOSTART
10201120,
10210120,
10201120,
10210220,
10201120,
10210120,
10201120,
1010004000101110,
20202120,
20202121,
20202120,
21202120,
20202120,
20202121,
20202120,
33003300,
#GOGOEND
0400,
#END
COURSE:Normal
LEVEL:4
SCOREINIT:940
SCOREDIFF:360
#START
1,
1,
1,
,
1,
1,
1,
33003300,
11,
1110,
1111,
,
11,
1110,
5,
000000000000000000000008000000000000000000000000,
10002001,
0120,
10002001,
0120,
1111,
10220000,
1111,
10220000,
10101022,
01010105,
000000000000000000000000000000000008000000000000,
30030000,
#GOGOSTART
00101022,
0111,
1500,
000000000000000000000008000000000000000000000000,
00101022,
00000011,
10022005,
000000000000000000000000000000000008000000000000,
00101022,
0111,
1500,
000000000000000000000008000000000000000000000000,
00101022,
00000011,
10022005,
000000000000000000000000000000000008000000000000,
#GOGOEND
0111,
10220000,
00111010,
11220000,
00111100,
3,
#GOGOSTART
12,
1120,
12,
1120,
12,
1120,
12,
10040000,
1111,
1122,
1111,
2211,
1111,
1122,
1111,
33003300,
#GOGOEND
0400,
#END
COURSE:Easy
LEVEL:3
SCOREINIT:720
SCOREDIFF:335
#START
1,
1,
1,
,
1,
1,
1,
33003300,
11,
11,
1011,
,
11,
11,
5,
000000000000000000000008000000000000000000000000,
12,
02,
12,
02,
11,
1,
11,
1,
11,
11,
3333,
30030000,
#GOGOSTART
0111,
0111,
1500,
000000000000000000000008000000000000000000000000,
0111,
0001,
12,
500000000000000000000000000000000008000000000000,
0111,
0111,
1500,
000000000000000000000008000000000000000000000000,
0111,
0001,
12,
500000000000000000000000000000000008000000000000,
#GOGOEND
0110,
12,
0110,
12,
0110,
3,
#GOGOSTART
11,
1110,
11,
1110,
11,
1110,
11,
20040000,
1110,
1110,
1110,
2220,
1110,
1110,
1110,
33003300,
#GOGOEND
0400,
#END