Files
ESE-ja-fix/02 Anime/Together/Together.tja
T
2023-06-15 19:15:39 -05:00

371 lines
8.5 KiB
Plaintext
Raw Blame History

This file contains ambiguous Unicode characters
This file contains Unicode characters that might be confused with other characters. If you think that this is intentional, you can safely ignore this warning. Use the Escape button to reveal them.
//TJADB Project
TITLE:Together
TITLEJA:Together
SUBTITLE:--Fumie Akiyoshi/Pokémon the Series: Diamond & Pearl
SUBTITLEJA:「ポケットモンスター ダイヤモンド・パール」オープニングテーマ
BPM:137
WAVE:Together.ogg
OFFSET:-7.165
DEMOSTART:52.720
COURSE:Oni
LEVEL:4
SCOREINIT:970
SCOREDIFF:230
#START
500000000000000000000000000000000000000000000000,
000000000000000000000000000000000008000000000000,
100000000000200000100000000000100000200000100000,
100000000000200000000000100000100000200000000000,
100000000000200000100000000000100000200000000000,
100000100000200200200000100000100000200000000000,
100000000000200000100000000000100000200000000000,
100000000000200000000000100000100000200000000000,
100000000000200000100000000000100000200000100100,
100000100000200000200000100100100000200000000000,
100000000000200000100000000000100000200000100000,
100000000000200000000000100000100000200000000000,
100000000000200000100000000000100000200000000000,
100000100000200200200000100000100000200000000000,
100000000000200000100000000000100000200000000000,
100000000000200000000000100000100000200000000000,
100000000000200000100000000000100000200000100100,
100000100000200000200000100100100000200000000000,
100000000000200000100000000000100000200000100000,
000000200000000000100000100000000000200000000000,
100000000000200000100000000000100000200000100000,
000000200000000000200000100000000000200000000000,
100000000000200000100000000000100000200000100000,
000000100000200000100000200000000000200000000000,
100000000000000000100000000000000000100000000000,
#BPMCHANGE 136.9
300000000000300000000000300000000000300000000000,
#GOGOSTART
#BPMCHANGE 136.94
000000100000200000200000100000100100100000200000,
100000200000100000200000100000200200200000100000,
000000100000200000200000100000100100100000200000,
100000200000100000200000000000200000100000200000,
000000100000200000200000100000100100100000200000,
100000200000100000200000100000200200200000000000,
100000200000100000000000100000100000200000200000,
300000000000300000000000300000000000300000000000,
000000100000200000200000100000100100100000200000,
100000200000100000200000100000200200200000100000,
000000100000200000200000100000100100100000200000,
100000200000100000200000000000200000100000200000,
000000100000200000200000100000100100100000200000,
100000200000200000100000100000200200200000100000,
100000200000100000000000100000000000100000000000,
#BPMCHANGE 138.09
500000000000000000000008000000100000200000200000,
#BPMCHANGE 135.82
100000200000100000000000300000000000300000000000,
#BPMCHANGE 136
500000000000000000000000000000000008000000000000,
#GOGOEND
#END
COURSE:Hard
LEVEL:4
SCOREINIT:1130
SCOREDIFF:320
#START
5,
000000000000000000000000000000000008000000000000,
10010000,
1111,
10010000,
10202200,
10010000,
1212,
10010000,
10202200,
#SECTION
#BRANCHSTART p,75,90
#N
10010000,
1111,
10010000,
10202200,
10010000,
1212,
10010000,
10202200,
#E
10110010,
1111,
10220000,
10202200,
10110010,
1212,
10220000,
10202220,
#M
10111011,
1111,
10210220,
10221200,
10111010,
1212,
10210110,
10201120,
#SECTION
#BRANCHSTART p,75,90
#N
0112,
01010000,
0112,
01010000,
0112,
01011010,
1,
3333,
#E
00101022,
01010000,
00101022,
01011000,
00101022,
01011010,
1,
3333,
#M
10201022,
01010000,
10201022,
01011000,
10201022,
01011010,
10010010,
3333,
#GOGOSTART
#SECTION
#BRANCHSTART p,75,90
#N
1210,
1012,
1210,
1012,
1212,
11101110,
1011,
3333,
#E
10201110,
1212,
10201110,
1212,
1212,
11101110,
1011,
3333,
#M
1000200010111000,
1212,
1000200010111000,
1212,
10201120,
11201120,
1011,
3333,
#SECTION
#BRANCHSTART p,75,90
#N
1210,
1012,
1210,
1012,
1212,
11101110,
#E
10201110,
1212,
10201110,
1212,
1212,
11101110,
#M
1000200010111000,
1212,
1000200010111000,
1212,
10201120,
11201120,
#SECTION
#BRANCHSTART p,75,90
#N
1011,
500000000000000000000008000000100000100000100000,
0033,
500000000000000000000000000000000008000000000000,
#E
1011,
500000000000000000000008000000100000100000100000,
0033,
500000000000000000000000000000000008000000000000,
#M
1011,
500000000000000000000008000000100000100000100000,
0033,
500000000000000000000000000000000008000000000000,
#BRANCHEND
#GOGOEND
#END
COURSE:Normal
LEVEL:1
BALLOON:12
SCOREINIT:1440
SCOREDIFF:660
#START
500000000000000000000000000000000000000000000000,
000000000000000000800000000000000000000000000000,
100000000000000000000000100000000000000000000000,
100000000000000000000000100000000000100000000000,
100000000000100000000000000000000000000000000000,
100000000000000000000000000000000000000000000000,
100000000000000000000000100000000000100000000000,
100000000000000000000000100000000000000000000000,
500000000000000000000000000000000000000000800000,
000000000000000000000000000000000000000000000000,
100000000000000000000000200000000000000000000000,
100000000000000000000000100000000000100000000000,
100000000000000000000000100000000000000000000000,
100000000000000000000000000000000000000000000000,
100000000000000000000000200000000000000000000000,
100000000000000000000000100000000000100000000000,
500000000000000000000000000000000000000000800000,
000000000000000000000000000000000000000000000000,
100000000000000000000000200000000000000000000000,
100000000000000000000000000000000000000000000000,
100000000000000000000000200000000000000000000000,
100000000000000000000000000000000000000000000000,
100000000000000000000000200000000000000000000000,
100000000000000000000000300000000000300000000000,
300000000000000000000000000000000000000000000000,
300000000000000000000000000000000000000000000000,
#GOGOSTART
100000000000000000000000200000000000000000000000,
100000000000000000000000100000000000100000000000,
100000000000000000000000200000000000000000000000,
100000000000100000000000100000000000000000000000,
100000000000000000000000200000000000000000000000,
100000000000000000000000100000000000100000000000,
100000000000000000000000100000000000100000000000,
500000000000000000000000000000800000000000000000,
100000000000000000000000200000000000000000000000,
100000000000000000000000100000000000100000000000,
100000000000000000000000200000000000000000000000,
100000000000100000000000100000000000000000000000,
100000000000000000000000100000000000100000000000,
100000000000000000000000100000000000100000000000,
100000000000000000000000100000000000100000000000,
500000000000000000800000000000000000000000000000,
000000000000000000000000300000000000300000000000,
700000000000000000000000000000000000000000000000,
000000000000000000000000000000800000000000000000,
#GOGOEND
#END
COURSE:Easy
LEVEL:2
BALLOON:8
SCOREINIT:1680
SCOREDIFF:840
#START
500000000000000000000000000000000000000000000000,
000000000000000000800000000000000000000000000000,
100000000000000000000000000000000000000000000000,
100000000000000000000000000000000000000000000000,
100000000000100000000000000000000000000000000000,
100000000000000000000000000000000000000000000000,
100000000000000000000000000000000000000000000000,
100000000000000000000000000000000000000000000000,
500000000000000000000000000000000000800000000000,
000000000000000000000000000000000000000000000000,
200000000000000000000000000000000000000000000000,
200000000000000000000000000000000000000000000000,
200000000000200000000000000000000000000000000000,
200000000000000000000000000000000000000000000000,
200000000000000000000000000000000000000000000000,
200000000000000000000000000000000000000000000000,
500000000000000000000000000000000000800000000000,
000000000000000000000000000000000000000000000000,
100000000000000000000000100000000000000000000000,
100000000000000000000000000000000000000000000000,
100000000000000000000000100000000000000000000000,
100000000000000000000000000000000000000000000000,
11,
1,
3,
3,
#GOGOSTART
1110,
1110,
1110,
1110,
1110,
11,
1,
500000000000000000000000000008000000000000000000,
100000000000000000000000100000000000000000000000,
100000000000100000000000000000000000000000000000,
100000000000000000000000100000000000000000000000,
100000000000100000000000000000000000000000000000,
100000000000000000000000100000000000000000000000,
100000000000000000000000100000000000000000000000,
100000000000000000000000100000000000100000000000,
500000000000000000800000000000000000000000000000,
000000000000000000000000300000000000300000000000,
900000000000000000000000000000000000000000800000,
#GOGOEND
#END