forked from ESE/ESE
263 lines
3.5 KiB
Plaintext
263 lines
3.5 KiB
Plaintext
//TJADB Project
|
|
TITLE:Try Everything
|
|
TITLEJA:トライ・エヴリシング
|
|
SUBTITLE:--Dream Ami/Zootopia
|
|
SUBTITLEJA:「ズートピア」より
|
|
BPM:115.5
|
|
WAVE:Try Everything.ogg
|
|
OFFSET:-8.999
|
|
DEMOSTART:49.767
|
|
|
|
COURSE:Oni
|
|
LEVEL:3
|
|
SCOREINIT:1030
|
|
SCOREDIFF:335
|
|
|
|
|
|
#START
|
|
|
|
|
|
2002002002002000,
|
|
,
|
|
2002002002002000,
|
|
00011221,
|
|
00001122,
|
|
11001012,
|
|
11012110,
|
|
00011221,
|
|
00011022,
|
|
11001012,
|
|
100000100000000000100000100000500000000000000008,
|
|
,
|
|
10120212,
|
|
10120212,
|
|
10120021,
|
|
01201010,
|
|
10120212,
|
|
10120212,
|
|
10210120,
|
|
10000344,
|
|
|
|
#GOGOSTART
|
|
30101210,
|
|
1000102010220020,
|
|
10221250,
|
|
000008000000000000100000200000200000100000500000,
|
|
000000000008000000100000200000200000100000200000,
|
|
11012212,
|
|
11010500,
|
|
000008000000000000000000000000300000400000400000,
|
|
30101210,
|
|
1000102010220020,
|
|
10221250,
|
|
000008000000000000100000200000200000100000500000,
|
|
000000000008000000100000200000200000100000200000,
|
|
11012212,
|
|
11010500,
|
|
000008000000000000000000000000000000000000000000,
|
|
3003003003003000,
|
|
00211202,
|
|
3003003003003000,
|
|
00211202,
|
|
3003003003003000,
|
|
00211202,
|
|
3003003003003000,
|
|
,
|
|
|
|
#GOGOEND
|
|
#BPMCHANGE 103.49
|
|
#SCROLL 1.11
|
|
2
|
|
#BPMCHANGE 95.37
|
|
#SCROLL 1.21
|
|
0
|
|
#BPMCHANGE 100.11
|
|
#SCROLL 1.15
|
|
2
|
|
#BPMCHANGE 95.37
|
|
#SCROLL 1.21
|
|
0,
|
|
2,
|
|
|
|
|
|
#END
|
|
|
|
|
|
COURSE:Hard
|
|
LEVEL:4
|
|
BALLOON:10,10,10
|
|
SCOREINIT:790
|
|
SCOREDIFF:230
|
|
|
|
|
|
#START
|
|
|
|
|
|
2002002002002000,
|
|
,
|
|
2002002002002000,
|
|
00011111,
|
|
00001122,
|
|
11001011,
|
|
22011220,
|
|
00011111,
|
|
00011022,
|
|
11001011,
|
|
200000200000000000100000100000500000000000000008,
|
|
,
|
|
10110202,
|
|
00010102,
|
|
00010012,
|
|
02000000,
|
|
10010202,
|
|
00010202,
|
|
00110220,
|
|
00000333,//20
|
|
|
|
#GOGOSTART
|
|
300000000000300000000000300000300000600000000008,
|
|
0000202020220020,
|
|
30330360,
|
|
000008000000000000300000300000300000300000300000,
|
|
00022222,
|
|
22022022,
|
|
33030600,
|
|
000008000000000000000000000000300000300000300000,
|
|
300000000000300000000000300000300000600000000008,
|
|
0000202020220020,
|
|
30330360,
|
|
000008000000000000300000300000300000300000300000,
|
|
00022022,
|
|
02022022,
|
|
33030600,
|
|
000008000000000000000000000000000000000000000000,
|
|
3003003003003000,
|
|
0708,
|
|
3003003003003000,
|
|
0708,
|
|
3003003003003000,
|
|
0708,
|
|
3003003003003000,
|
|
,//44
|
|
|
|
#BPMCHANGE 99
|
|
#GOGOEND
|
|
22,
|
|
2,
|
|
#END
|
|
|
|
COURSE:Normal
|
|
LEVEL:3
|
|
BALLOON:5,5
|
|
|
|
#START
|
|
,
|
|
,
|
|
1111,
|
|
1122,
|
|
1022,
|
|
11002020,
|
|
11022020,
|
|
0022,
|
|
1022,
|
|
11002020,
|
|
100000100000000000100000000000500000000000000008,
|
|
,
|
|
10220101,
|
|
00020201,
|
|
00010011,
|
|
,
|
|
10220101,
|
|
00020201,
|
|
00110110,
|
|
,//20
|
|
|
|
#GOGOSTART
|
|
30303360,
|
|
000008000000100000000000100000000000100000000000,
|
|
30330330,
|
|
00030333,
|
|
00011010,
|
|
11001010,
|
|
33030909,
|
|
8,
|
|
30303360,
|
|
000008000000100000000000100000000000100000000000,
|
|
30330330,
|
|
00030333,
|
|
00011011,
|
|
01001010,
|
|
33030909,
|
|
8,
|
|
3003003003003000,
|
|
000000000000600000000000000000000008000000000000,
|
|
3003003003003000,
|
|
000000000000600000000000000000000008000000000000,
|
|
3003003003003000,
|
|
000000000000600000000000000000000008000000000000,
|
|
3003003003003000,
|
|
,//44
|
|
|
|
#BPMCHANGE 99
|
|
#GOGOEND
|
|
22,
|
|
2,
|
|
#END
|
|
|
|
COURSE:Easy
|
|
LEVEL:2
|
|
BALLOON:4,4
|
|
|
|
#START
|
|
,
|
|
,
|
|
11,
|
|
1,
|
|
1,
|
|
1,
|
|
1,
|
|
1011,
|
|
1,
|
|
1,
|
|
11,
|
|
1,
|
|
1,
|
|
1,
|
|
11,
|
|
1,
|
|
1,
|
|
1,
|
|
11,
|
|
1,//20
|
|
|
|
#GOGOSTART
|
|
3036,
|
|
000000000008000000000000300000000000000000000000,
|
|
30030030,
|
|
,
|
|
33,
|
|
33,
|
|
30030909,
|
|
8,
|
|
3036,
|
|
000000000008000000000000300000000000000000000000,
|
|
30030030,
|
|
,
|
|
33,
|
|
33,
|
|
30030909,
|
|
8,
|
|
30030030,
|
|
000000000000600000000000000008000000000000000000,
|
|
30030030,
|
|
000000000000600000000000000008000000000000000000,
|
|
30030030,
|
|
000000000000600000000000000008000000000000000000,
|
|
30030030,
|
|
,//44
|
|
|
|
#BPMCHANGE 99
|
|
#GOGOEND
|
|
11,
|
|
1,
|
|
#END |