Files
ESE-ja-fix/02 Anime/Viva! Spark! Tropical-Rouge! Pretty Cure/Viva! Spark! Tropical-Rouge! Pretty Cure.tja
T
2023-06-15 19:00:23 -05:00

345 lines
13 KiB
Plaintext

//TJADB Project
TITLE:Viva! Spark! Tropical-Rouge! Pretty Cure
TITLEJA:Viva! Spark!トロピカル~ジュ!プリキュア
SUBTITLE:--EFFY feat. Machico/Tropical-Rouge! Pretty Cure
BPM:131.99
WAVE:Viva! Spark! Tropical-Rouge! Pretty Cure.ogg
OFFSET:-0.859
DEMOSTART:59.477
BGMOVIE:Viva! Spark! Tropical-Rouge! Pretty Cure.mp4
COURSE:Edit
LEVEL:7
BALLOON:10,14,9,18
SCOREINIT:3310
SCOREDIFF:0
#START
100000200100000100200000100000100100000200200000,
100000100200000200100000300000000300000000000000,
100000200100000100200000100000100100000200200000,
100000000000700000000000000000000000000000800000,
#GOGOSTART
100000200100000100200000100000100200100000200000,
100000200100000100200000100100000200100200100000,
100000200100000000100000200000100200000000200000,
500000000000000000000000000008000000000000000000,
100000100100200000100000100000200100000100200000,
300000000300000000300000000000200000200000100000,
100000100000200000100000100000200100000100200000,
100000100000200000100000100000200100000100200000,
300000300000400000000000300000000300000000400000,
300000000000200000000000300000000300000000400000,
700000000000000000000000000000000000800000000000,
100010001000000010001000100000000100100000200000,
#GOGOEND
100000200100000000100000000000100000100000200000,
100000200100000000100000000000100000100000200000,
100000200200100000000000100000000100000000200000,
100000100200000000100000000000200000100100200000,
100000200100000000100000000000100000100000200000,
100000200100000000100000000000100000200000200000,
100000200200100000000000100000000100000000200000,
700000000000000000000000800000200000000000100000,
400000000000400000000000100000200100000000200000,
100000100100000200200000000000100000200000100000,
100000100100200000100000100000000100000000200000,
100000100500000000000000000008000000000000200000,
300000000300000000300000400000000000200000200000,
300000000300000000400000300000000000000000100100,
200000100200000000100000200000100200000000200000,
700000000000000000000000000000000000000000800000,
000000000000300000000000400000000000300000000000,
#GOGOSTART
100000200100000100200000100000100200100000200000,
100000200100000100200000100100000200100200100000,
100000200100000000100000200000100200000000200000,
500000000000000000000000000008000000000000000000,
100000100100200000100000100000200100000100200000,
300000000300000000300000000000200000200200100000,
100000100000200000100000100000200100000100200000,
100000100000200000100000100000200100000100200000,
300000300000400000000000300000000300000000400000,
300000000000200000000000300000000300000000400000,
600000000000000000000000000000000000000008000000,
000000000000000000000000300000000000400000000000,
600000000000000000000000000000000000000008000000,
100010001000000010001000100000000200200000200000,
000000000000300000000000000000000000000000000000,
#GOGOEND
#END
COURSE:Oni
LEVEL:4
BALLOON:10,20,12,18,46
SCOREINIT:4790
SCOREDIFF:0
#START
100000000100000000100000200000000200000000200000,
100000000100000000200000300000000300000000000000,
100000000100000000100000200000000200000000200000,
100000000000700000000000000000000000000000800000,
#GOGOSTART
100000000100000000100000000000200000200000100000,
100000000200000000100000000000100000100000200000,
100000100100000000100000200000200200000000200000,
500000000000000000000000000008000000000000000000,
100000100000200000000000100000100100000000200000,
300000000300000000300000000000100000100000200000,
100000000000200000000000100000100100000000200000,
100000000000200000000000100000100100000000200000,
300000000000400000000000300000000300000000400000,
300000000000000000000000300000000300000000400000,
700000000000000000000000000000000000000000000000,
800000000000000000000000000000000000000000000000,
#GOGOEND
100000000100000000100000000000100000100000200000,
100000000100000000100000000000100000100000200000,
100000000000100000000000200000000200000000100000,
100000200200000000000000000000100000100000200000,
100000000200000000100000000000100000100000200000,
100000000200000000100000000000100000200000200000,
100000000000200000000000100000000100000000200000,
700000000000000000000000000000800000000000000000,
400000000000400000000000100000000100000000200000,
100000100100000100100000000000100000200000000000,
100000100000200000000000100000000100000000200000,
500000000000000000000000000008000000000000000000,
300000000300000000300000400000000000000000000000,
300000000300000000400000300000000000000000200000,
100000100100000000200000200000200200000000200000,
700000000000000000000000000000000000000000800000,
000000000000300000000000400000000000300000000000,
#GOGOSTART
100000000100000000100000000000200000200000100000,
100000000200000000100000000000100000100000200000,
100000100100000000100000200000200200000000200000,
500000000000000000000000000008000000000000000000,
100000100000200000000000100000000100000000200000,
300000000300000000300000000000100000100000200000,
100000000000200000000000100000100100000000200000,
100000000000200000000000100000100100000000200000,
300000000000400000000000300000000300000000400000,
300000000000000000000000300000000300000000400000,
600000000000000000000000000000000000000008000000,
000000000000000000000000300000000000400000000000,
700000000000000000000000000000000000000000000000,
000000000000000000000000000000000000000000000000,
000000000000800000000000000000000000000000000000,
#GOGOEND
#END
COURSE:Hard
LEVEL:3
BALLOON:7,12,9,15,30
SCOREINIT:7840
SCOREDIFF:0
#START
100000000000000000000000200000000000000000000000,
100000000000000000000000300000000300000000000000,
100000000000000000000000200000000000000000000000,
100000000000700000000000000000000000000800000000,
#GOGOSTART
100000000100000000100000000000000000200000000000,
100000000100000000100000000000000000200000000000,
100000000100000000000000200000000200000000000000,
500000000000000000000000000080000000000000000000,
100000000000200000000000100000000100000000000000,
300000000300000000300000000000000000200000000000,
100000000000200000000000100000000100000000000000,
100000000000200000000000100000000100000000000000,
300000000000400000000000300000000300000000000000,
300000000000000000000000300000000300000000000000,
900000000000000000000000000000000000000000000000,
800000000000000000000000000000000000000000000000,
#GOGOEND
100000000100000000100000000000000000000000000000,
100000000100000000100000000000000000000000000000,
100000000000100000000000100000000100000000000000,
100000000100000000000000000000000000000000000000,
100000000100000000100000000000000000000000000000,
200000000200000000200000000000000000000000000000,
100000000000100000000000100000000100000000000000,
700000000000000000000000000800000000000000000000,
400000000000400000000000100000000000000000000000,
100000000000000000200000000000000000100000000000,
200000000000200000000000100000000000000000000000,
500000000000000000000000000080000000000000000000,
300000000300000000300000300000000000000000000000,
300000000300000000300000300000000000000000000000,
100000000100000000000000100000000100000000000000,
700000000000000000000000000000000000000800000000,
000000000000300000000000400000000000300000000000,
#GOGOSTART
100000000100000000100000000000000000200000000000,
100000000100000000100000000000000000200000000000,
100000000100000000000000200000000200000000000000,
500000000000000000000000000080000000000000000000,
100000000000200000000000100000000100000000000000,
300000000300000000300000000000000000200000000000,
100000000000200000000000100000000100000000000000,
100000000000200000000000100000000100000000000000,
300000000000400000000000300000000300000000000000,
300000000000000000000000300000000300000000000000,
600000000000000000000000000000000000000080000000,
000000000000000000000000300000000000300000000000,
900000000000000000000000000000000000000000000000,
000000000000000000000000000000000000000000000000,
000000000800000000000000000000000000000000000000,
#GOGOEND
#END
COURSE:Normal
LEVEL:2
BALLOON:7,9,7,9,25
SCOREINIT:7840
SCOREDIFF:0
#START
100000000000000000000000100000000000000000000000,
100000000000000000000000300000000000000000000000,
100000000000000000000000100000000000000000000000,
700000000000000000000000800000000000000000000000,
#GOGOSTART
100000000000000000100000000000000000000000000000,
100000000000000000100000000000000000000000000000,
100000000000000000000000100000000000000000000000,
500000000000000000000000000080000000000000000000,
100000000000000000000000100000000000000000000000,
300000000000000000300000000000000000000000000000,
100000000000100000000000100000000000000000000000,
100000000000100000000000100000000000000000000000,
300000000000300000000000300000000000000000000000,
300000000000000000000000400000000000000000000000,
900000000000000000000000000000000000800000000000,
000000000000000000000000000000000000000000000000,
#GOGOEND
100000000000000000100000000000000000000000000000,
100000000000000000100000000000000000000000000000,
100000000000000000000000100000000000000000000000,
100000000000000000000000000000000000000000000000,
100000000000000000100000000000000000000000000000,
100000000000000000100000000000000000000000000000,
100000000000000000000000100000000000000000000000,
700000000000000000000000800000000000000000000000,
400000000000000000000000100000000000000000000000,
100000000000000000000000000000000000000000000000,
200000000000000000000000100000000000000000000000,
500000000000000000000000000080000000000000000000,
300000000000000000300000300000000000000000000000,
300000000000000000300000300000000000000000000000,
100000000000000000000000100000000000000000000000,
900000000000000000000000000000000000800000000000,
000000000000000000000000000000000000000000000000,
#GOGOSTART
100000000000000000100000000000000000000000000000,
100000000000000000100000000000000000000000000000,
100000000000000000000000100000000000000000000000,
500000000000000000000000000080000000000000000000,
100000000000000000000000100000000000000000000000,
300000000000000000300000000000000000000000000000,
100000000000100000000000100000000000000000000000,
100000000000100000000000100000000000000000000000,
300000000000300000000000300000000000000000000000,
300000000000000000000000400000000000000000000000,
600000000000000000000000000000000000000080000000,
000000000000000000000000300000000000000000000000,
900000000000000000000000000000000000000000000000,
000000000000000000000000000000000000000000000000,
000000000800000000000000000000000000000000000000,
#GOGOEND
#END
COURSE:Easy
LEVEL:1
BALLOON:5,7,5,7,18
SCOREINIT:19850
SCOREDIFF:0
#START
100000000000000000000000000000000000000000000000,
100000000000000000000000300000000000000000000000,
100000000000000000000000000000000000000000000000,
700000000000000000000000800000000000000000000000,
#GOGOSTART
100000000000000000000000000000000000000000000000,
100000000000000000000000000000000000000000000000,
100000000000000000000000100000000000000000000000,
500000000000000000000000000080000000000000000000,
100000000000000000000000000000000000000000000000,
300000000000000000000000000000000000000000000000,
100000000000000000000000100000000000000000000000,
100000000000000000000000100000000000000000000000,
300000000000300000000000300000000000000000000000,
300000000000000000000000000000000000000000000000,
900000000000000000000000000000000000800000000000,
000000000000000000000000000000000000000000000000,
#GOGOEND
100000000000000000000000000000000000000000000000,
100000000000000000000000000000000000000000000000,
100000000000000000000000100000000000000000000000,
100000000000000000000000000000000000000000000000,
100000000000000000000000000000000000000000000000,
100000000000000000000000000000000000000000000000,
100000000000000000000000100000000000000000000000,
700000000000000000000000800000000000000000000000,
300000000000000000000000000000000000000000000000,
100000000000000000000000000000000000000000000000,
200000000000000000000000000000000000000000000000,
500000000000000000000000000080000000000000000000,
300000000000000000000000300000000000000000000000,
300000000000000000000000300000000000000000000000,
100000000000000000000000100000000000000000000000,
900000000000000000000000000000000000800000000000,
000000000000000000000000000000000000000000000000,
#GOGOSTART
100000000000000000000000000000000000000000000000,
100000000000000000000000000000000000000000000000,
100000000000000000000000100000000000000000000000,
500000000000000000000000000080000000000000000000,
100000000000000000000000000000000000000000000000,
300000000000000000000000000000000000000000000000,
100000000000000000000000100000000000000000000000,
100000000000000000000000100000000000000000000000,
300000000000300000000000300000000000000000000000,
300000000000000000000000000000000000000000000000,
600000000000000000000000000000000000000080000000,
000000000000000000000000000000000000000000000000,
900000000000000000000000000000000000000000000000,
000000000000000000000000000000000000000000000000,
000000000800000000000000000000000000000000000000,
#GOGOEND
#END