forked from ESE/ESE
233 lines
8.3 KiB
Plaintext
233 lines
8.3 KiB
Plaintext
//TJADB Project
|
||
TITLE:W-B-X ~W Boiled Extreme~
|
||
TITLEJA:W-B-X ~W‐Boiled Extreme~
|
||
SUBTITLE:--TAKUYA/Kamen Rider W
|
||
BPM:140
|
||
WAVE:W-B-X ~W Boiled Extreme~.ogg
|
||
OFFSET:-2.449
|
||
DEMOSTART:41.873
|
||
|
||
COURSE:Oni
|
||
LEVEL:6
|
||
BALLOON:24,22,14
|
||
SCOREINIT:1220
|
||
SCOREDIFF:300
|
||
|
||
|
||
#START
|
||
|
||
|
||
#SCROLL 0.91
|
||
100000100000000000100000000000100000000000100000,
|
||
700000000000000000000000000000000000000000000000,
|
||
#BPMCHANGE 141.02
|
||
000000000000800000000000000000100100200000000000,
|
||
#BPMCHANGE 140
|
||
100100100000200000100000100100000000200000000000,
|
||
100100100000200000100000100100000000200000000000,
|
||
100100100000200000100000100100000000200000000000,
|
||
100100100000200000300000000000300000300000000000,
|
||
100000000000200000100000000000100000200000000000,
|
||
100100000100200000100000100100000100200000100000,
|
||
100000000000200000100000000000100000200000000000,
|
||
100100000100200000100000100100000100200000100000,
|
||
100000000000200000100000000000100000200000000000,
|
||
100100000100200000100000100100000100200000100000,
|
||
100000000000200000100000000000100000200000000000,
|
||
100100100100000000100000000000100000200200200000,
|
||
100100100000100100100000100100100000200000000000,
|
||
100100100000100100100000100100100100200000000000,
|
||
700000000000000000000000000000000000000000000000,
|
||
000000000000000000000000000000800000000000000000,
|
||
100100100000100100100000100000100100200000000000,
|
||
100100100000100100100000100100100100200000000000,
|
||
500000000000000000000000000000000008000000000000,
|
||
300000000000000000000000000000000000000000000000,
|
||
|
||
#GOGOSTART
|
||
100000100000200000100000100200100000200000100100,
|
||
100000000100200000100000100100000100200000100000,
|
||
500000000000000000000000000000000008000000000000,
|
||
000000000000100000100000100100100000100000000000,
|
||
100000100000200000100000100200100000200000100000,
|
||
100100000100200000100000100100000100200000100000,
|
||
100000000000400000000000200000000200000000200000,
|
||
200000000000000000100000000000100100100000100000,
|
||
600000000000000000000000000000000000000000000008,
|
||
000000000000100000200000000000100000000000100100,
|
||
700000000000000000000000000000000000800000000000,
|
||
|
||
#GOGOEND
|
||
100000100000200000100000000100100000200000000000,
|
||
100000100000200000100000000100100000200000000000,
|
||
100000100000200000100000000100100000200000000000,
|
||
100000100000200000100000000000200200200000200000,
|
||
300000300000000000000000000000000000000000300000,
|
||
|
||
|
||
#END
|
||
|
||
|
||
COURSE:Hard
|
||
LEVEL:5
|
||
BALLOON:15,15,12
|
||
SCOREINIT:1170
|
||
SCOREDIFF:310
|
||
|
||
|
||
#START
|
||
|
||
|
||
100000100000000000100000000000100000000000100000,
|
||
700000000000000000000000000000000000000000000000,
|
||
000000000000000000800000000000100100200000000000,
|
||
100000100000200000100000100100000000200000000000,
|
||
100000100000200000100000100100000000200000000000,
|
||
100000100000200000100000100100000000200000000000,
|
||
300000400000300000400000000000300000300000000000,
|
||
100000000000200000100000100000000000200000000000,
|
||
100000000000200000100000100000000000200000000000,
|
||
100000000000200000100000100000000000200000000000,
|
||
100100000100100000000000100100000100100000000000,
|
||
100000000000200000100000100000000000200000000000,
|
||
100000000000200000100000100000000000200000000000,
|
||
100000000000200000100000100000000000200000000000,
|
||
100000000100000000100000000000100000100000100000,
|
||
100100100000100100100000100000000000200000000000,
|
||
100100100000100100100000100000100000200000000000,
|
||
700000000000000000000000000000000000000000000000,
|
||
000000000000000000000000000000000000800000000000,
|
||
100100100000100100100000100000000000200000000000,
|
||
100100100000100100100000100000100000200000000000,
|
||
500000000000000000000000000000000800000000000000,
|
||
300000000000000000000000000000000000000000000000,
|
||
#GOGOSTART
|
||
300000000000400000000000300000000000000000100000,
|
||
100000000100000000200000100000000100000000200000,
|
||
500000000000000000000000000000000800000000000000,
|
||
000000000000100000100000100000000000100000000000,
|
||
300000000000400000000000300000000000000000100000,
|
||
100000000100000000200000100000000100000000200000,
|
||
100000000000400000000000200000000200000000200000,
|
||
200000000000000000100000000000100000100000100000,
|
||
600000000000000000000000000000000000000000000800,
|
||
000000000000100000100000000000100000000000100000,
|
||
700000000000000000000000000000000000000000800000,
|
||
#GOGOEND
|
||
100000100000200000100000000100000000200000000000,
|
||
100000100000200000100000000100000000200000000000,
|
||
100000100000200000100000000100000000200000000000,
|
||
100000100000200000100000000000200200200000200000,
|
||
300000300000000000000000000000000000000000300000,
|
||
|
||
|
||
#END
|
||
|
||
|
||
COURSE:Normal
|
||
LEVEL:3
|
||
BALLOON:12,8,8
|
||
SCOREINIT:1490
|
||
SCOREDIFF:620
|
||
|
||
|
||
#START
|
||
|
||
|
||
000000000000000000000000000000100000200000000000,
|
||
100000000000100000000000100000000000000000000000,
|
||
100000000000100000000000100000000000000000000000,
|
||
100000000000100000000000100000000000000000000000,
|
||
300000000000300000000000300000000000000000000000,
|
||
100000000000200000000000000000000000200000000000,
|
||
100000000000200000000000000000000000200000000000,
|
||
100000000000200000000000000000000000200000000000,
|
||
100000000000100000000000100000000000000000000000,
|
||
100000000000200000000000000000000000200000000000,
|
||
100000000000200000000000000000000000200000000000,
|
||
100000000000200000000000000000000000200000000000,
|
||
100000000000100000000000100000100000100000000000,
|
||
300000000000000000100000000000000000200000000000,
|
||
300000000000000000100000000000000000200000000000,
|
||
700000000000000000000000000000000000000000000000,
|
||
000000000000000000000000000000000800000000000000,
|
||
300000000000000000100000000000000000200000000000,
|
||
300000000000000000100000000000000000200000000000,
|
||
700000000000000000000000000000000000000000000800,
|
||
000000000000000000000000000000000000000000000000,
|
||
#GOGOSTART
|
||
300000000000400000000000300000000000000000000000,
|
||
100000000000100000000000100000100000100000000000,
|
||
500000000000000000000000000000000800000000000000,
|
||
000000000000200000000000200000000000200000000000,
|
||
300000000000400000000000300000000000000000000000,
|
||
100000000000100000000000100000100000100000000000,
|
||
100000000000000000000000200000000000200000200000,
|
||
200000000000000000000000100000100000100000000000,
|
||
600000000000000000000000000000000000000000800000,
|
||
000000000000100000100000000000100000000000000000,
|
||
900000000000000000000000000000000000000000800000,
|
||
#GOGOEND
|
||
000000000000000000000000000000000000000000000000,
|
||
000000000000000000000000000000000000000000000000,
|
||
100000000000100000000000100000000000000000500000,
|
||
000000000000000000000800000000000000000000000000,
|
||
300000300000000000000000000000000000000000300000,
|
||
|
||
|
||
#END
|
||
|
||
|
||
COURSE:Easy
|
||
LEVEL:3
|
||
BALLOON:10,6,6
|
||
SCOREINIT:1290
|
||
SCOREDIFF:730
|
||
|
||
|
||
#START
|
||
|
||
|
||
100000000000100000000000100000000000000000000000,
|
||
100000000000100000000000100000000000000000000000,
|
||
100000000000100000000000100000000000000000000000,
|
||
300000000000300000000000300000000000000000000000,
|
||
100000000000000000000000100000000000000000000000,
|
||
100000000000100000000000100000000000000000000000,
|
||
100000000000000000000000100000000000000000000000,
|
||
100000000000100000000000100000000000000000000000,
|
||
200000000000000000000000200000000000000000000000,
|
||
200000000000200000000000200000000000000000000000,
|
||
200000000000000000000000200000000000000000000000,
|
||
200000000000200000000000200000000000000000000000,
|
||
300000000000000000000000000000000000000000000000,
|
||
300000000000000000000000000000000000000000000000,
|
||
700000000000000000000000000000000000000000000000,
|
||
000000000000000000000000000000000800000000000000,
|
||
300000000000000000000000000000000000000000000000,
|
||
300000000000000000000000000000000000000000000000,
|
||
700000000000000000000000000000000000000000000800,
|
||
000000000000000000000000000000000000000000000000,
|
||
#GOGOSTART
|
||
300000000000300000000000300000000000000000000000,
|
||
100000000000100000000000100000000000100000000000,
|
||
500000000000000000000000000000000800000000000000,
|
||
000000000000200000000000200000000000200000000000,
|
||
300000000000300000000000300000000000000000000000,
|
||
100000000000100000000000100000000000100000000000,
|
||
100000000000000000000000200000000000200000000000,
|
||
200000000000000000000000000000000000000000000000,
|
||
600000000000000000000000000000000000800000000000,
|
||
000000000000100000000000100000000000100000000000,
|
||
900000000000000000000000000000000000000000800000,
|
||
#GOGOEND
|
||
000000000000000000000000000000000000000000000000,
|
||
000000000000000000000000000000000000000000000000,
|
||
100000000000100000000000100000000000000000000000,
|
||
100000000000000000000000000000000000000000000000,
|
||
300000000000000000000000000000000000000000300000,
|
||
|
||
|
||
#END
|
||
|