Files
ESE-ja-fix/02 Anime/Wake Up!/Wake Up!.tja
T
2023-01-17 00:45:18 -05:00

362 lines
4.5 KiB
Plaintext

//TJADB Project
TITLE:Wake Up!
TITLEJA:Wake up!
SUBTITLE:--AAA/ONE PIECE
SUBTITLEJA:「ワンピース」より
BPM:176
WAVE:Wake Up!.ogg
OFFSET:-1.808
DEMOSTART:61.718
COURSE:Oni
LEVEL:6
BALLOON:11,15
SCOREINIT:680
SCOREDIFF:160
#START
1110101111101000,//1
#GOGOSTART
1110200010201000,
1110201000102000,
1110200010201000,
1110201000201020,
1110102000201020,
1110201000001020,
1111,
1000101110111000,
34034034,
03403030,
34034037,//12
#GOGOEND
0008,
20102210,
21120120,
500000000008000000000000200000200000100000200000,
01210120,
10201210,
10210121,
0222,
2220201000102000,
1110201000102000,
1110201000201020,
3333,
600000000000000000000000000000000008000000000000,
10201210,
10210121,
0222,
2220201000102000,
1110201000201020,
1110201000102000,
7,
8,
10210020,
10210120,
10210201,
02120000,
10210020,
10210120,
1110102000201011,
1000102000201011,
12120215,
000000000008000000000000500000000000000000000000,
000008000000000000000000000000000000000000000000,//44
#GOGOSTART
1110200011102000,
1110201000102010,
1110200011102000,
1110201000102010,
1110201000100010,
1110201000102000,
2002202000200050,
000000000000000000000008000000000000000000000000,
1110200011102000,
1110201000102010,
1110200011102000,
1110201000102010,
1110201000111020,
1011102000001020,
1111,
1000101110111000,
34034034,
03403030,
34034034,
0020222030030030,
3000000000000022,//65
#GOGOEND
1,
#END
COURSE:Hard
LEVEL:5
BALLOON:10,10
SCOREINIT:720
SCOREDIFF:223
#START
,//1
#GOGOSTART
10201120,
10210000,
10201120,
10210000,
10210110,
10210012,
1111,
500000000000000000000000000000000008000000000000,
34034034,
03403030,
34034037,//12
#GOGOEND
0008,
20102210,
20120210,
500000000008000000000000200000200000100000200000,
01210120,
10201120,
10210121,
0222,
20220120,
10210120,
10210120,
3333,
600000000000000000000000000000008000000000000000,
10201120,
10210121,
0222,
20220120,
10210120,
10210120,
7,
8,
10110020,
10110220,
10110221,
01210000,
10110020,
10110220,
10110021,
10110021,
12210215,
000000000008000000000000500000000000000000000000,
000008000000000000000000000000000000000000000000,//44
#GOGOSTART
10201120,
10210112,
10201120,
10210112,
10110101,
10110120,
20220205,
000000000000000000000008000000000000000000000000,
11201120,
10210120,
11201120,
10210121,
10210112,
12010012,
3333,
600000000000000000000000000000000008000000000000,
34034034,
03403030,
34034034,
0000000030030030,
3000000000000011,//65
#GOGOEND
1,
#END
COURSE:Normal
LEVEL:5
BALLOON:6,6
SCOREINIT:840
SCOREDIFF:299
#START
,//1
#GOGOSTART
12,
10110000,
12,
10110000,
10110110,
10110000,
1111,
500000000000000000000000000000000008000000000000,
33033033,
03303030,
33033036,//12
#GOGOEND
000000000000000000000000000008000000000000000000,
1110,
10110000,
9009,
8,
1110,
10110101,
0202,
00220000,
10110000,
10110000,
1111,
500000000000000000000000000000000008000000000000,
1110,
10110101,
0202,
00220000,
10110000,
10110000,
9009,
8,
1202,
1120,
1202,
1120,
1202,
1120,
10110000,
10110000,
30330336,
000000000008000000000000600000000000000000000000,
000008000000000000000000000000000000000000000000,//44
#GOGOSTART
1120,
10110000,
1120,
10110000,
10110101,
10110000,
10110105,
000000000000000000000008000000000000000000000000,
1122,
10110000,
1122,
10110000,
10110110,
10110000,
1111,
500000000000000000000000000000000008000000000000,
33033033,
03303030,
33033036,
000000000000000000000000000000000000000000000008,//64
#GOGOEND
#END
COURSE:Easy
LEVEL:3
BALLOON:5,5
SCOREINIT:780
SCOREDIFF:438
#START
,//1
#GOGOSTART
11,
1,
11,
1,
1100,
1100,
11,
500000000000000000000000000008000000000000000000,
30030030,
03003000,
30030036,//12
#GOGOEND
000000000000000000000000000008000000000000000000,
12,
1110,
9009,
8,
11,
1,
2,
22,
3,
3,
11,
500000000000000000000000000008000000000000000000,
11,
1,
2,
22,
3,
3,
9009,
8,
12,
1,
12,
1,
12,
1,
3300,
3300,
30303036,
000000000008000000000000600000000000000000000000,
000000000008000000000000000000000000000000000000,//44
#GOGOSTART
1110,
12,
1110,
12,
1100,
1100,
10101005,
000000000000000000000008000000000000000000000000,
1110,
12,
1110,
12,
1100,
1100,
1110,
500000000000000000000000000008000000000000000000,
30030030,
03003000,
30030036,
000000000000000000000000000000000000000000000008,
#GOGOEND
#END