Files
ESE-ja-fix/02 Anime/WiSH VOYAGE/WiSH VOYAGE.tja
T
2023-06-15 19:05:10 -05:00

331 lines
3.6 KiB
Plaintext

//TJADB Project
TITLE:WiSH VOYAGE
TITLEJA:WiSH VOYAGE
SUBTITLE:--IDOLiSH7/IDOLiSH7
SUBTITLEJA:「アイドリッシュセブン」より
BPM:150
WAVE:WiSH VOYAGE.ogg
OFFSET:-1.700
DEMOSTART:50.825
COURSE:Oni
LEVEL:6
BALLOON:7,7,14,14,7,7,7,7,12
SCOREINIT:790
SCOREDIFF:180
#START
0002,
30002002,
1002,
1222,
10001022,
10002222,
1220,
70087008,
2220201110104000,//9
#GOGOSTART
3000200011102010,
0000200011102030,
03040403,//12
#GOGOEND
0020202022204010,
10201221,
0010002000112010,
1000201110102030,
03040001,
10201221,
1110201000112010,
1000201110002010,
3003003000004000,
30022000,
7008,
30022000,
7008,
1001102010002010,
1001102010002011,
10401041,
1000200010011020,
13434343,
03030040,//31
#GOGOSTART
3001102011102010,
500000000000000000000008000000000000200000000000,
1110200011102000,
70008022,
1000400011102020,
1000400011102020,
1001102010011020,
3003003030004000,
1001102011102010,
500000000000000000000008000000000000200000000000,
1110200011102000,
70008022,
1000400011102020,
1000200022201010,
500000000000000000000000000000000008000000000000,
1000201010222000,//47
#GOGOEND
3000102000112020,
1000102000112020,
1110222011102220,
3003003000004000,
70087008,
2220201110104000,//53
#GOGOSTART
3000200011102010,
0000200011102030,
03040403,//56
#GOGOEND
0020202022204020,
7,
8,
#END
COURSE:Hard
LEVEL:4
BALLOON:8,8,8,8,4,12,4,8,8
SCOREINIT:910
SCOREDIFF:260
#START
0002,
20002002,
2022,
2222,
20000011,
10001111,
1220,
7,
8,//9
#GOGOSTART
30201101,
00201113,
03030303,//12
#GOGOEND
00000001,
10101002,
02020001,
10101024,
04040001,
10101022,
11110002,
20022001,
3003003000000000,
4,
7008,
4,
7008,
1001001010000010,
1001001010000010,
10401041,
1000200010010010,
7008,
0003,//31
#GOGOSTART
30201021,
500000000000000000000008000000000000200000000000,
1122,
70008011,
10401111,
10401111,
7,
0083,
30201021,
500000000000000000000008000000000000200000000000,
1122,
70008011,
10201111,
10202011,
500000000000000000000000000000000008000000000000,
20022000,//47
#GOGOEND
30020111,
10020111,
1122,
3003003000000000,
7,
8,//53
#GOGOSTART
30201101,
00201113,
03030303,//56
#GOGOEND
,
7,
8,
#END
COURSE:Normal
LEVEL:3
BALLOON:8,5,5,14,8,8
#START
,
11,
1,
11,
1,
22,
2220,
7,
8,//9
#GOGOSTART
30001001,
00001003,
03030303,//12
#GOGOEND
,
10101002,
02020000,
10101003,
03030000,
1110,
2200,
33,
600000000000000000000000000000000008000000000000,
3,
7008,
3,
7008,
11,
11,
1414,
9,
09,
8,//31
#GOGOSTART
30001001,
500000000000000000000008000000000000000000000000,
1122,
1,
3400,
3400,
500000000000000000000000000000000000000000000008,
,
30001001,
500000000000000000000008000000000000000000000000,
1122,
1,
11,
1111,
500000000000000000000000000000000008000000000000,
22,//47
#GOGOEND
30020000,
30020000,
1122,
3,
7,
8,//53
#GOGOSTART
30001001,
00001003,
03030303,//56
#GOGOEND
,
7008,
,
#END
COURSE:Easy
LEVEL:2
BALLOON:8,14,8,8
#START
,
1,
1,
11,
1,
1,
1,
7,
8,//9
#GOGOSTART
30001001,
00001003,
03030303,//12
#GOGOEND
,
10001003,
,
20002004,
,
11,
1,
11,
3,
4,
500000000000000000000000000008000000000000000000,
4,
500000000000000000000000000008000000000000000000,
11,
11,
0303,
9,
09,
8,//31
#GOGOSTART
11,
3,
1110,
3,
0400,
0400,
500000000000000000000000000000000000000000000008,
,
11,
3,
1110,
3,
11,
1110,
500000000000000000000000000008000000000000000000,
2,//47
#GOGOEND
3,
3,
1110,
3,
7,
8,//53
#GOGOSTART
30001001,
00001003,
03030303,//56
#GOGOEND
,
7,
8,
#END