Files
ESE-ja-fix/02 Anime/XYandZ/XYandZ.tja
T
2023-06-15 19:15:39 -05:00

751 lines
7.4 KiB
Plaintext
Raw Blame History

This file contains ambiguous Unicode characters
This file contains Unicode characters that might be confused with other characters. If you think that this is intentional, you can safely ignore this warning. Use the Escape button to reveal them.
//TJADB Project
TITLE:XY&Z
TITLEJA:XY&Z
SUBTITLE:--Rica Matsumoto/Pokémon the Series: XYZ
BPM:254
WAVE:XYandZ.ogg
OFFSET:-2.133
DEMOSTART:46.286
COURSE:Oni
LEVEL:9
SCOREINIT:590
SCOREDIFF:130
#START
10210210,
21021021,
21121121,
#MEASURE 2/4
2,//4
#MEASURE 4/4
#GOGOSTART
30201121,
0010200011102000,
10201121,
0010200011102020,
10201121,
0010200011102000,
21121121,
12112211,//12
#GOGOEND
1212,
10210221,
0212,
10201122,
1212,
10210022,
10201220,
10201222,
10201120,
11210120,
10201120,
11221021,
01201120,
11210120,
10211120,
12221221,
10110102,
02102021,
10102012,
12102011,
10110102,
02102021,
10210250,
000008000000000000000000200000200000100000100000,
1010200011102000,
11201122,
1010200011102000,
11201122,
11211211,
11211122,
11211211,
11211122,
21121121,
12112111,
1110101110101010,
1,//40
#GOGOSTART
30201120,
10201122,
10210121,
0010200011102000,
30201120,
10201122,
10210210,
0010100022201010,
30201120,
1000200011102020,
10201121,
1000200011102020,
10210121,
01201120,
21121121,
1020101022201010,
30012010,
10112010,
10120102,
02102010,
30012010,
10112010,//70
#GOGOEND
30030030,
0000100022201010,//72
#GOGOSTART
30201120,
10211122,
10211121,
10211122,
10210121,
01201120,
21121121,
1110101110101010,
21121121,
1011101011101010,
10210120,
10210112,
22112211,
200000200000100000100000500000000000000008000000,
10210120,
10212211,
00102012,
02102210,
00102012,
2020101011104000,
#GOGOEND
#END
COURSE:Hard
LEVEL:5
BALLOON:15,27
SCOREINIT:700
SCOREDIFF:210
#START
#SCROLL 0.5
#BARLINEOFF
,
,
,
#MEASURE 2/4
,//4
#MEASURE 4/4
#BARLINEON
#GOGOSTART
30101001,
#BARLINEOFF
0110,
#BARLINEON
20202002,
#BARLINEOFF
0220,
#BARLINEON
10101001,
#BARLINEOFF
0110,
#BARLINEON
30030030,
#BARLINEOFF
03003030,//12
#BARLINEON
#GOGOEND
1212,
#BARLINEOFF
1210,
#BARLINEON
1212,
#BARLINEOFF
1210,
#BARLINEON
1222,
#BARLINEOFF
20020020,
#BARLINEON
1111,
#BARLINEOFF
12,
#BARLINEON
1212,
#BARLINEOFF
1210,
#BARLINEON
1212,
#BARLINEOFF
1210,
#BARLINEON
1222,
#BARLINEOFF
20020020,
#BARLINEON
1122,
#BARLINEOFF
12,
#BARLINEON
10101002,
#BARLINEOFF
0110,
#BARLINEON
1111,
#BARLINEOFF
10020000,
#BARLINEON
10101002,
#BARLINEOFF
0110,
#BARLINEON
40040040,
#BARLINEOFF
0011,
#BARLINEON
1122,
#BARLINEOFF
1122,
#BARLINEON
1122,
#BARLINEOFF
1122,
#BARLINEON
5,
#BARLINEOFF
000000000000000000000000000000000000000000000008,
#BARLINEON
0001,
#BARLINEOFF
10102007,
#BARLINEON
,
#BARLINEOFF
,
#BARLINEON
8,
#BARLINEOFF
0440,//40
#BARLINEON
#GOGOSTART
3002,
#BARLINEOFF
1212,
#BARLINEON
10010101,
#BARLINEOFF
0440,
#BARLINEON
3012,
#BARLINEOFF
1212,
#BARLINEON
30030030,
#BARLINEOFF
0440,
#BARLINEON
3002,
#BARLINEOFF
1212,
#BARLINEON
1122,
#BARLINEOFF
1,
#BARLINEON
6,
#BARLINEOFF
,
#BARLINEON
000000000000000000000000000000000008000000000000,
#BARLINEOFF
0440,
#BARLINEON
3001,
#BARLINEOFF
1221,
#BARLINEON
10010101,
#BARLINEOFF
0440,
#BARLINEON
3022,
#BARLINEOFF
1122,//70
#BARLINEON
#GOGOEND
30030030,
#BARLINEOFF
0440,//72
#BARLINEON
#GOGOSTART
3002,
#BARLINEOFF
1212,
#BARLINEON
1122,
#BARLINEOFF
1009,
#BARLINEON
,
#BARLINEOFF
,
#BARLINEON
09,
#BARLINEOFF
,
#BARLINEON
8,
#BARLINEOFF
,
#BARLINEON
1212,
#BARLINEOFF
10101003,
#BARLINEON
0333,
#BARLINEOFF
3340,
#BARLINEON
1212,
#BARLINEOFF
10101001,
#BARLINEON
00101002,
#BARLINEOFF
0111,
#BARLINEON
00101002,
#BARLINEOFF
0113,
#BARLINEON
,//93
#BARLINEOFF
#GOGOEND
,
#END
COURSE:Normal
LEVEL:2
BALLOON:27,6,15,6,6,20
#START
#SCROLL 0.5
#BARLINEOFF
,
,
,
#MEASURE 2/4
,//4
#MEASURE 4/4
#BARLINEON
#GOGOSTART
9,
#BARLINEOFF
,
#BARLINEON
,
#BARLINEOFF
,
#BARLINEON
09,
#BARLINEOFF
,
#BARLINEON
8,
#BARLINEOFF
,//12
#BARLINEON
#GOGOEND
1,
#BARLINEOFF
1,
#BARLINEON
1,
#BARLINEOFF
11,
#BARLINEON
1,
#BARLINEOFF
,
#BARLINEON
2,
#BARLINEOFF
2,
#BARLINEON
1,
#BARLINEOFF
1,
#BARLINEON
1,
#BARLINEOFF
11,
#BARLINEON
1,
#BARLINEOFF
,
#BARLINEON
2,
#BARLINEOFF
2,
#BARLINEON
1,
#BARLINEOFF
,
#BARLINEON
11,
#BARLINEOFF
1,
#BARLINEON
1,
#BARLINEOFF
1,
#BARLINEON
7,
#BARLINEOFF
08,
#BARLINEON
22,
#BARLINEOFF
2,
#BARLINEON
22,
#BARLINEOFF
22,
#BARLINEON
5,
#BARLINEOFF
000000000000000000000000000000000000000000000008,
#BARLINEON
,
#BARLINEOFF
00000007,
#BARLINEON
,
#BARLINEOFF
,
#BARLINEON
,
#BARLINEOFF
8,//40
#BARLINEON
#GOGOSTART
3,
#BARLINEOFF
11,
#BARLINEON
5,
#BARLINEOFF
000000000000000000000008000000000000000000000000,
#BARLINEON
3,
#BARLINEOFF
11,
#BARLINEON
7,
#BARLINEOFF
08,
#BARLINEON
3,
#BARLINEOFF
22,
#BARLINEON
22,
#BARLINEOFF
2006,
#BARLINEON
,
#BARLINEOFF
,
#BARLINEON
000000000000000000000000000000000008000000000000,
#BARLINEOFF
,
#BARLINEON
3,
#BARLINEOFF
11,
#BARLINEON
5,
#BARLINEOFF
000000000000000000000008000000000000000000000000,
#BARLINEON
30,
#BARLINEOFF
11,//70
#BARLINEON
#GOGOEND
7,
#BARLINEOFF
08,//72
#BARLINEON
#GOGOSTART
3,
#BARLINEOFF
22,
#BARLINEON
22,
#BARLINEOFF
2009,
#BARLINEON
,
#BARLINEOFF
,
#BARLINEON
09,
#BARLINEOFF
,
#BARLINEON
8,
#BARLINEOFF
,
#BARLINEON
1,
#BARLINEOFF
1,
#BARLINEON
33,
#BARLINEOFF
33,
#BARLINEON
1,
#BARLINEOFF
10000005,
#BARLINEON
,
#BARLINEOFF
000000000008000000000000000000000000600000000000,
#BARLINEON
,
#BARLINEOFF
,
#BARLINEON
000000000000000000000008000000000000000000000000,//93
#BARLINEOFF
#GOGOEND
,
#END
COURSE:Easy
LEVEL:1
BALLOON:20,8,9,4,4,13
#START
#SCROLL 0.5
#BARLINEOFF
,
,
,
#MEASURE 2/4
,//4
#MEASURE 4/4
#BARLINEON
#GOGOSTART
9,
#BARLINEOFF
,
#BARLINEON
,
#BARLINEOFF
,
#BARLINEON
09,
#BARLINEOFF
,
#BARLINEON
8,
#BARLINEOFF
,//12
#BARLINEON
#GOGOEND
1,
#BARLINEOFF
,
#BARLINEON
,
#BARLINEOFF
,
#BARLINEON
1,
#BARLINEOFF
,
#BARLINEON
,
#BARLINEOFF
,
#BARLINEON
1,
#BARLINEOFF
,
#BARLINEON
1,
#BARLINEOFF
,
#BARLINEON
7,
#BARLINEOFF
,
#BARLINEON
8,
#BARLINEOFF
,
#BARLINEON
1,
#BARLINEOFF
,
#BARLINEON
1,
#BARLINEOFF
,
#BARLINEON
1,
#BARLINEOFF
,
#BARLINEON
1,
#BARLINEOFF
,
#BARLINEON
1,
#BARLINEOFF
1,
#BARLINEON
1,
#BARLINEOFF
1,
#BARLINEON
5,
#BARLINEOFF
000000000000000000000000000000000000000000000008,
#BARLINEON
,
#BARLINEOFF
00000007,
#BARLINEON
,
#BARLINEOFF
,
#BARLINEON
8,
#BARLINEOFF
,//40
#BARLINEON
#GOGOSTART
3,
#BARLINEOFF
1,
#BARLINEON
1,
#BARLINEOFF
,
#BARLINEON
3,
#BARLINEOFF
1,
#BARLINEON
7,
#BARLINEOFF
0800,
#BARLINEON
3,
#BARLINEOFF
1,
#BARLINEON
1,
#BARLINEOFF
1006,
#BARLINEON
,
#BARLINEOFF
,
#BARLINEON
000000000000000000000000000000000008000000000000,
#BARLINEOFF
,
#BARLINEON
3,
#BARLINEOFF
1,
#BARLINEON
1,
#BARLINEOFF
,
#BARLINEON
3,
#BARLINEOFF
1,//70
#BARLINEON
#GOGOEND
7,
#BARLINEOFF
0800,//72
#BARLINEON
#GOGOSTART
3,
#BARLINEOFF
1,
#BARLINEON
1,
#BARLINEOFF
1009,
#BARLINEON
,
#BARLINEOFF
,
#BARLINEON
09,
#BARLINEOFF
,
#BARLINEON
8,
#BARLINEOFF
,
#BARLINEON
1,
#BARLINEOFF
1,
#BARLINEON
3,
#BARLINEOFF
3,
#BARLINEON
1,
#BARLINEOFF
10000005,
#BARLINEON
,
#BARLINEOFF
000000000008000000000000000000000000600000000000,
#BARLINEON
,
#BARLINEOFF
,
#BARLINEON
000000000008000000000000000000000000000000000000,//93
#BARLINEOFF
#GOGOEND
,
#END