Files
ESE-ja-fix/02 Anime/Yajirushi ni Natte!/Yajirushi ni Natte!.tja
T
2023-06-15 19:15:39 -05:00

343 lines
3.1 KiB
Plaintext
Raw Blame History

This file contains ambiguous Unicode characters
This file contains Unicode characters that might be confused with other characters. If you think that this is intentional, you can safely ignore this warning. Use the Escape button to reveal them.
//TJADB Project
TITLE:Yajirushi ni Natte!
TITLEJA:やじるしになって!
SUBTITLE:--Rica Matsumoto/Pokémon the Series: Black & White
SUBTITLEJA:「ポケットモンスター ベストウィッシュ シーズン2」より
BPM:165
WAVE:Yajirushi ni Natte!.ogg
OFFSET:-2.014
DEMOSTART:7.832
COURSE:Oni
LEVEL:3
SCOREINIT:750
SCOREDIFF:190
#START
11212010,
11212010,
11212020,
22101000,
#GOGOSTART
11201121,
01210120,
11201121,
01210120,
11201121,
01210121,
01210121,
0010002011102220,
#GOGOEND
10101110,
1202,
10101120,
1202,
10101110,
1210,
11210120,
1,
10101110,
1202,
10101120,
1202,
10101110,
1210,
11201120,
12020202,
10211120,
10211020,
10211120,
10211020,
10211120,
10211020,
3300,
30000006,
000000000000000000000000000000000000000000000008,
,
10101120,
11210120,
10101120,
11210121,
01210121,
11210120,
1010222010102220,
30030030,
#GOGOSTART
11211121,
01210120,
11211121,
01210120,
11211121,
01210121,
01210121,
0010201000111011,
11201122,
1010001000111011,
11201122,
11010111,
1160,
000000000000000000000000000008000000000000000000,
#GOGOEND
#END
COURSE:Hard
LEVEL:2
BALLOON:10
SCOREINIT:950
SCOREDIFF:250
#START
11101010,
22202020,
11101010,
500000000000000000000000000008000000000000000000,
#GOGOSTART
10101110,
1202,
10101110,
1202,
10101110,
10200111,
01110500,
000000000000000008000000000000000000000000000000,
#GOGOEND
11,
1110,
1122,
1,
1110,
1120,
500000000000000000000000000000000000000000000008,
,
11,
1110,
1122,
1,
1110,
1120,
9,
8,
10101110,
11101000,
11101000,
1,
10101110,
11101000,
3300,
30000006,
000000000000000000000000000000000000000000000008,
,
10101110,
1202,
10101110,
10000111,
01110500,
000000000000000008000000000000000000000000000000,
33,
3,
#GOGOSTART
10101110,
1202,
10101110,
1202,
10101110,
10200111,
01110500,
000000000000000008000000000000100000100000100000,
11001110,
11010111,
11001110,
11010111,
1160,
000000000000000000000000000008000000000000000000,
#GOGOEND
#END
COURSE:Normal
LEVEL:1
BALLOON:2,2,7,2,2,2,2
SCOREINIT:1090
SCOREDIFF:340
#START
#SCROLL 0.85
12,
12,
12,
50000800,
#GOGOSTART
11,
1,
11,
1,
33,
30000708,
07080500,
00080000,
#GOGOEND
11,
1110,
11,
1,
22,
2220,
5,
8,
11,
1110,
11,
1,
22,
2220,
9,
8,
11,
1110,
1110,
1,
1011,
11,
3300,
30000006,
,
8,
1110,
11,
1110,
10000708,
07080500,
08,
33,
3,
#GOGOSTART
1110,
11,
1110,
11,
3330,
30000708,
07080500,
08,
31,
1110,
31,
1110,
36,
00000800,
#GOGOEND
#END
COURSE:Easy
LEVEL:1
BALLOON:8,5,8,8
SCOREINIT:1160
SCOREDIFF:580
#START
#SCROLL 0.85
11,
,
11,
50000800,
#GOGOSTART
11,
1,
11,
1,
33,
30000700,
,
8,
#GOGOEND
1,
1,
11,
1,
11,
1,
5,
8,
1,
1,
11,
1,
11,
1,
9,
8,
1,
11,
1,
1,
1,
11,
3,
30000006,
,
8,
11,
1,
11,
10000700,
,
8,
33,
3,
#GOGOSTART
11,
1,
11,
1,
33,
30000700,
,
8,
31,
1,
31,
1,
36,
00000800,
#GOGOEND
#END