forked from ESE/ESE
348 lines
4.6 KiB
Plaintext
348 lines
4.6 KiB
Plaintext
//TJADB Project
|
||
TITLE:Yokouso Japari Park e
|
||
TITLEJA:ようこそジャパリパークへ
|
||
SUBTITLE:--Doubutsu Biscuits × PPP/Kemono Friends
|
||
SUBTITLEJA:どうぶつビスケッツ×PPP 「けものフレンズ」より
|
||
BPM:170
|
||
WAVE:Yokouso Japari Park e.ogg
|
||
OFFSET:-3.100
|
||
DEMOSTART:38.352
|
||
|
||
COURSE:Oni
|
||
LEVEL:7
|
||
BALLOON:3,6,3
|
||
SCOREINIT:580
|
||
SCOREDIFF:140
|
||
|
||
|
||
#START
|
||
|
||
|
||
#GOGOSTART
|
||
30430343,
|
||
0030303000202220,
|
||
1011200020112000,
|
||
3434,
|
||
|
||
#GOGOEND
|
||
#BPMCHANGE 171.21
|
||
#SCROLL 0.99
|
||
3022102210221110,
|
||
1022102210222220,
|
||
#BPMCHANGE 168.81
|
||
#SCROLL 1
|
||
1022102210221110,
|
||
500000000000000008000000700000000000000008000000,
|
||
#BPMCHANGE 170
|
||
1000000010020010,
|
||
0000001020020020,
|
||
1022102210221110,
|
||
1022102210202020,
|
||
1000201010020010,
|
||
#BPMCHANGE 171.52
|
||
#SCROLL 0.99
|
||
0022202210020020,
|
||
#BPMCHANGE 168.61
|
||
#SCROLL 1
|
||
1022102210221120,
|
||
#BPMCHANGE 170
|
||
3344,
|
||
1010202010222010,
|
||
2020102010112000,
|
||
1010202010222030,
|
||
03030403,
|
||
01221020,
|
||
10112021,
|
||
1000102220100030,
|
||
04470000,
|
||
8222,
|
||
|
||
#GOGOSTART
|
||
1120201110102010,
|
||
0010112000202220,
|
||
1011201020112010,
|
||
1120102010202220,
|
||
1120201110102010,
|
||
0010112000222220,
|
||
1011201020112010,
|
||
2010221020112000,
|
||
|
||
#GOGOEND
|
||
30020202,
|
||
10210120,
|
||
1001001020020020,
|
||
500000000008000000200200200000000000000000200000,
|
||
10210211,
|
||
20120122,
|
||
10210211,
|
||
500000000000000008000000400000000000000000000000,
|
||
3022102210221110,
|
||
500000000000000008000000700000000000000000800000,
|
||
|
||
#GOGOSTART
|
||
1020102011102022,
|
||
1020102011102000,
|
||
1110202011202000,
|
||
1110101022202020,
|
||
1020102011102022,
|
||
1020202210201000,
|
||
1022102011221010,
|
||
500000000008000000100000400000000000400000000000,
|
||
2220102011102010,
|
||
2220102022102020,
|
||
1022102011202000,
|
||
2210102011202010,
|
||
2220102022102010,
|
||
2220202210201000,
|
||
1022102011112010,
|
||
500000000008000000100000400000000000400000000000,
|
||
30403043,
|
||
04303000,
|
||
|
||
#GOGOEND
|
||
|
||
|
||
#END
|
||
|
||
|
||
COURSE:Hard
|
||
LEVEL:4
|
||
BALLOON:8,8,8
|
||
SCOREINIT:660
|
||
SCOREDIFF:190
|
||
|
||
#START
|
||
#GOGOSTART
|
||
30030003,
|
||
01110220,
|
||
1212,
|
||
3344,//4
|
||
|
||
#GOGOEND
|
||
3212,
|
||
10201110,
|
||
1212,
|
||
7008,
|
||
10001001,
|
||
02,
|
||
11110000,
|
||
22220000,
|
||
11102001,
|
||
01102000,
|
||
11110000,
|
||
2210,
|
||
11101002,
|
||
22202000,
|
||
11101003,
|
||
03030403,
|
||
00022000,
|
||
10022003,
|
||
30330406,
|
||
000000000000000000000000000000000000000008000000,
|
||
0222,//25
|
||
|
||
#GOGOSTART
|
||
11110111,
|
||
01110220,
|
||
1212,
|
||
11104000,
|
||
11110111,
|
||
01110220,
|
||
1212,
|
||
3344,//33
|
||
|
||
#GOGOEND
|
||
30000202,
|
||
2222,
|
||
500000000000000000000000000008000000000000700000,
|
||
00000801,
|
||
10110102,
|
||
20220201,
|
||
10110102,
|
||
22,
|
||
10101110,
|
||
7008,//43
|
||
|
||
#GOGOSTART
|
||
10110220,
|
||
10110120,
|
||
11201120,
|
||
100000100000100000500000000000000008000000000000,
|
||
10110220,
|
||
11220220,
|
||
11201122,
|
||
600000000000000000000000000000000008000000000000,
|
||
11110220,
|
||
11110120,
|
||
11201120,
|
||
100000100000200000500000000000000008000000000000,
|
||
11110220,
|
||
11220220,
|
||
11202211,
|
||
600000000000000000000000000000000008000000000000,
|
||
30303044,
|
||
04403000,//61
|
||
|
||
#GOGOEND
|
||
,
|
||
#END
|
||
|
||
COURSE:Normal
|
||
LEVEL:2
|
||
BALLOON:5,6,6,6,6
|
||
|
||
#START
|
||
#GOGOSTART
|
||
30030007,
|
||
08,
|
||
12,
|
||
3333,//4
|
||
|
||
#GOGOEND
|
||
31,
|
||
1011,
|
||
11,
|
||
7008,
|
||
10001003,
|
||
02,
|
||
3300,
|
||
3300,
|
||
10001003,
|
||
02,
|
||
3300,
|
||
1110,
|
||
12,
|
||
12,
|
||
10002005,
|
||
,
|
||
000008000000000000000000200000000000000000000000,
|
||
12,
|
||
30000006,
|
||
000000000000000000000000000000000000000008000000,
|
||
,//25
|
||
|
||
#GOGOSTART
|
||
30030007,
|
||
08,
|
||
1111,
|
||
3340,
|
||
30030007,
|
||
08,
|
||
1111,
|
||
3344,//33
|
||
|
||
#GOGOEND
|
||
3,
|
||
2,
|
||
2000000020000500,
|
||
000000000000000000000000000008000000000000000000,
|
||
3,
|
||
4,
|
||
3,
|
||
4,
|
||
1111,
|
||
7008,//43
|
||
|
||
#GOGOSTART
|
||
1120,
|
||
1120,
|
||
1111,
|
||
600000000000000000000000000008000000000000000000,
|
||
1120,
|
||
1120,
|
||
10101016,
|
||
000000000000000000000000000008000000000000000000,
|
||
3340,
|
||
3340,
|
||
3344,
|
||
600000000000000000000000000008000000000000000000,
|
||
3340,
|
||
3344,
|
||
30304046,
|
||
000000000000000000000000000008000000000000000000,
|
||
30003006,
|
||
000000000000000000000000000008000000000000000000,//61
|
||
|
||
#GOGOEND
|
||
,
|
||
#END
|
||
|
||
COURSE:Easy
|
||
LEVEL:2
|
||
BALLOON:4,4,4,4,4
|
||
|
||
#START
|
||
#GOGOSTART
|
||
30030007,
|
||
08,
|
||
11,
|
||
3333,//4
|
||
|
||
#GOGOEND
|
||
3,
|
||
,
|
||
3,
|
||
7008,
|
||
10001003,
|
||
,
|
||
3,
|
||
4,
|
||
10001003,
|
||
,
|
||
3,
|
||
1110,
|
||
1,
|
||
2,
|
||
10000005,
|
||
,
|
||
000008000000000000000000100000000000000000000000,
|
||
11,
|
||
30000006,
|
||
000000000000000000000000000000000000000008000000,
|
||
,//25
|
||
|
||
#GOGOSTART
|
||
30030007,
|
||
08,
|
||
11,
|
||
3330,
|
||
30030007,
|
||
08,
|
||
11,
|
||
3333,//33
|
||
|
||
#GOGOEND
|
||
3,
|
||
2,
|
||
2000000000000500,
|
||
000000000000000000000000000008000000000000000000,
|
||
3,
|
||
3,
|
||
4,
|
||
4,
|
||
3,
|
||
7008,//43
|
||
|
||
#GOGOSTART
|
||
3300,
|
||
3300,
|
||
11,
|
||
600000000000000000000000000008000000000000000000,
|
||
4400,
|
||
4400,
|
||
20002006,
|
||
000000000000000000000000000008000000000000000000,
|
||
3300,
|
||
3300,
|
||
11,
|
||
600000000000000000000000000008000000000000000000,
|
||
4400,
|
||
4400,
|
||
20002006,
|
||
000000000000000000000000000008000000000000000000,
|
||
30003006,
|
||
000000000000000000000000000008000000000000000000,//61
|
||
|
||
#GOGOEND
|
||
,
|
||
#END |