forked from ESE/ESE
317 lines
11 KiB
Plaintext
317 lines
11 KiB
Plaintext
//TJADB Project
|
|
TITLE:Zenryoku Zenkai! Zenkaiger
|
|
TITLEJA:全力全開!ゼンカイジャー
|
|
SUBTITLE:--Takeshi Tsuruno/Kikai Sentai Zenkaiger
|
|
SUBTITLEJA:「機界戦隊ゼンカイジャー」より
|
|
BPM:176
|
|
WAVE:Zenryoku Zenkai! Zenkaiger.ogg
|
|
OFFSET:-1.704
|
|
DEMOSTART:55.716
|
|
|
|
COURSE:Oni
|
|
LEVEL:6
|
|
BALLOON:6,12,12,10,14
|
|
SCOREINIT:3940
|
|
SCOREDIFF:0
|
|
|
|
|
|
#START
|
|
|
|
|
|
,
|
|
|
|
#GOGOSTART
|
|
500000000000000000000000000000000000000000000000,
|
|
000000000000000000000000000000000008000000000000,
|
|
500000000000000000000000000000000008000000000000,
|
|
700000000000000000000000800000000000000000000000,
|
|
300000300000000000300000300000000000400000400000,
|
|
000000000000300000000000300000000000400000000000,
|
|
|
|
#GOGOEND
|
|
100000100000200000200000100000000000200000000000,
|
|
100000100000200000100000100000100000200000100000,
|
|
000000100000200000100000100000100000200000100000,
|
|
000000100000200000100000000000200200200000000000,
|
|
100000100000200000200000100000000000200000000000,
|
|
100000100000200000200000100000100000200000500000,
|
|
000000000000000000000000000000000008000000000000,
|
|
700000000000000000000000000000000000800000000000,
|
|
100000100000200200200000100000100000200000200000,
|
|
100000000000200000000000100000100000200000100000,
|
|
000000100000200200200000100000100000200000100000,
|
|
000000100000200000000000100000200200200000000000,
|
|
300000000000100000100000000000200000000000300000,
|
|
000000200000200000100000100000100000200000600000,
|
|
000000000000000000000000000000000000000000000000,
|
|
000008000000000000000000100000100000200000200000,
|
|
100000100000000000100000000000000000000000000000,
|
|
100000100000000000200000100000100000100000200000,
|
|
300000000000000000000000400000000000000000000000,
|
|
400000000000400000000000100000000000100000000000,
|
|
100000100100100000100000200000200000100000100000,
|
|
100000100000200000100000000000100100200000000000,
|
|
100000100100100000100000100000200000000000700000,
|
|
000000000000000000000000000000000000800000000000,
|
|
100000000000100000000000100000000000200000000000,
|
|
|
|
#GOGOSTART
|
|
300000000000300000000000300000000000400000300000,
|
|
300000000000000000300000000000100100200000200000,
|
|
100000000000100000000000100000200200200000100000,
|
|
100000100000200000100000000000100100200000000000,
|
|
100000000000100100100000200000000000200200200000,
|
|
100000000000100100100000200000100000200000100000,
|
|
500000000000000000000000000000000000000000000000,
|
|
000000000000000008000000000000100000100000200000,
|
|
300000000000300000000000300000000000400000300000,
|
|
300000000000000000300000000000100100100000000000,
|
|
100000000000100100100000200000000000200200200000,
|
|
100000000000200000100000000000100100200000000000,
|
|
100000100000200000200000100000100100200000100000,
|
|
000000100000100000200000100000100100200000000000,
|
|
100000100000200000100100100000200200200000700000,
|
|
000000000000000000000000800000000000100000200000,
|
|
300000000000300000400000000000300000000000300000,
|
|
000000000000300000000000300000400000000000600000,
|
|
000000000000000000000000000008000000000000000000,
|
|
300000000000300000400000300000000000300000700000,
|
|
000000000000000000000000000000000000800000000000,
|
|
100000100000100000100000000000000000400000000000,
|
|
|
|
#GOGOEND
|
|
|
|
|
|
#END
|
|
|
|
|
|
COURSE:Hard
|
|
LEVEL:4
|
|
BALLOON:6,7,12,8,12
|
|
SCOREINIT:5390
|
|
SCOREDIFF:0
|
|
|
|
|
|
#START
|
|
|
|
|
|
,
|
|
|
|
#GOGOSTART
|
|
500000000000000000000000000000000000000000000000,
|
|
000000000000000000000000000000000008000000000000,
|
|
500000000000000000000000000000000008000000000000,
|
|
700000000000000000000000800000000000000000000000,
|
|
300000300000000000300000300000000000400000400000,
|
|
000000000000300000000000300000000000400000000000,
|
|
|
|
#GOGOEND
|
|
100000000000100000000000100000000000200000000000,
|
|
100000000000200000000000100000100000100000100000,
|
|
000000000000200000000000000000000000200000000000,
|
|
000000000000200000000000000000200200200000000000,
|
|
100000000000100000000000100000000000200000000000,
|
|
100000000000200000000000100000100000100000500000,
|
|
000000000000000000000000000000000008000000000000,
|
|
700000000000000000000000000000000000800000000000,
|
|
100000000000200000000000100000100000100000000000,
|
|
100000000000200000000000100000100000100000100000,
|
|
000000000000200000000000000000000000200000000000,
|
|
000000000000200000000000000000200200200000000000,
|
|
300000000000100000100000000000100000000000300000,
|
|
000000100000100000100000100000200000200000600000,
|
|
000000000000000000000000000000000000000000000000,
|
|
000008000000000000000000100000100000100000000000,
|
|
100000100000000000200000000000000000000000000000,
|
|
100000100000000000200000200000000000100000000000,
|
|
300000000000000000000000400000000000000000000000,
|
|
400000000000400000000000100000000000100000000000,
|
|
100000100000100000000000100000100000200000200000,
|
|
100000100000100000100000000000200000200000000000,
|
|
100000100000200000200000100000100000000000700000,
|
|
000000000000000000000000000000000000000000000000,
|
|
800000000000000000000000000000000000000000000000,
|
|
|
|
#GOGOSTART
|
|
300000000000300000000000300000000000300000300000,
|
|
300000000000000000300000000000000000100000100000,
|
|
100000000000100000000000100000000000200000200000,
|
|
100000100000100000100000000000200000200000000000,
|
|
100000000000100000000000200000000000100000000000,
|
|
100000000000200000200000100000100000200000200000,
|
|
500000000000000000000000000000000000000000000000,
|
|
000000000000000008000000000000100000100000100000,
|
|
300000000000300000000000300000000000300000300000,
|
|
300000000000000000300000000000000000100000000000,
|
|
100000000000100000000000200000000000200000000000,
|
|
100000000000100000100000000000200000200000000000,
|
|
100000100000200000200000100000000000100100100000,
|
|
000000100000100000100000100000000000200000000000,
|
|
100000100000200000200000100000100000000000700000,
|
|
000000000000000000800000000000000000100000100000,
|
|
300000000000300000300000000000400000000000300000,
|
|
000000000000300000000000300000300000000000600000,
|
|
000000000000000000000000000008000000000000000000,
|
|
300000000000300000300000300000000000300000900000,
|
|
000000000000000000000000000000000000000000000008,
|
|
|
|
#GOGOEND
|
|
|
|
|
|
#END
|
|
|
|
|
|
COURSE:Normal
|
|
LEVEL:2
|
|
BALLOON:4,5,9,6,9
|
|
SCOREINIT:11240
|
|
SCOREDIFF:0
|
|
|
|
|
|
#START
|
|
|
|
|
|
,
|
|
|
|
#GOGOSTART
|
|
500000000000000000000000000000000000000000000000,
|
|
000000000000000000000000000000000008000000000000,
|
|
500000000000000000000000000000000008000000000000,
|
|
700000000000000000000000800000000000000000000000,
|
|
300000000000000000300000000000000000300000000000,
|
|
000000000000000000000000300000000000000000000000,
|
|
|
|
#GOGOEND
|
|
100000000000000000000000100000000000000000000000,
|
|
100000000000000000000000100000000000100000000000,
|
|
000000000000200000000000000000000000200000000000,
|
|
000000000000200000000000000000000000200000000000,
|
|
100000000000000000000000100000000000000000000000,
|
|
100000000000000000000000100000000000000000500000,
|
|
000000000000000000000000000000000008000000000000,
|
|
700000000000000000000000000000000000800000000000,
|
|
100000000000000000000000100000000000000000000000,
|
|
100000000000000000000000100000000000100000000000,
|
|
000000000000200000000000000000000000200000000000,
|
|
000000000000200000000000000000000000200000000000,
|
|
300000000000000000000000000000100000000000300000,
|
|
000000000000000000000000100000000000000000600000,
|
|
000000000000000000000000000000000000000000000000,
|
|
000008000000000000000000000000000000000000000000,
|
|
100000000000000000000000000000000000000000000000,
|
|
100000000000000000000000100000000000000000000000,
|
|
300000000000000000000000400000000000000000000000,
|
|
400000000000000000000000100000000000100000000000,
|
|
100000000000000000000000100000000000000000000000,
|
|
100000000000000000100000000000000000000000000000,
|
|
100000000000000000000000100000000000000000700000,
|
|
000000000000000000000000000000000000000000000000,
|
|
800000000000000000000000000000000000000000000000,
|
|
|
|
#GOGOSTART
|
|
300000000000300000000000300000000000400000000000,
|
|
300000000000000000300000000000000000000000000000,
|
|
100000000000100000000000100000000000200000000000,
|
|
100000000000000000100000000000000000000000000000,
|
|
100000000000000000000000100000000000100000000000,
|
|
100000000000000000000000100000000000100000000000,
|
|
500000000000000000000000000000000000000000000000,
|
|
000000000000000008000000000000000000000000000000,
|
|
300000000000300000000000300000000000400000000000,
|
|
300000000000000000300000000000000000000000000000,
|
|
100000000000100000000000100000000000200000000000,
|
|
100000000000000000100000000000000000000000000000,
|
|
100000000000000000000000100000000000000000100000,
|
|
000000000000000000000000100000000000000000000000,
|
|
100000000000100000000000100000000000000000700000,
|
|
000000000000000000000000000000800000000000000000,
|
|
300000000000000000300000000000000000000000300000,
|
|
000000000000000000000000300000000000000000600000,
|
|
000000000000000000000000000008000000000000000000,
|
|
300000000000300000000000300000000000000000900000,
|
|
000000000000000000000000000000000000000000000008,
|
|
|
|
#GOGOEND
|
|
|
|
|
|
#END
|
|
|
|
|
|
COURSE:Easy
|
|
LEVEL:2
|
|
BALLOON:3,4,8,5,8
|
|
SCOREINIT:22030
|
|
SCOREDIFF:0
|
|
|
|
|
|
#START
|
|
|
|
|
|
,
|
|
|
|
#GOGOSTART
|
|
500000000000000000000000000000000000000000000000,
|
|
000000000000000000000000000000000008000000000000,
|
|
500000000000000000000000000000000008000000000000,
|
|
700000000000000000000000800000000000000000000000,
|
|
300000000000000000000000000000000000300000000000,
|
|
000000000000000000000000300000000000000000000000,
|
|
|
|
#GOGOEND
|
|
100000000000000000000000000000000000000000000000,
|
|
100000000000000000000000000000000000000000000000,
|
|
000000000000200000000000000000000000000000000000,
|
|
000000000000200000000000000000000000000000000000,
|
|
100000000000000000000000000000000000000000000000,
|
|
100000000000000000000000000000000000000000500000,
|
|
000000000000000000000000000000000008000000000000,
|
|
700000000000000000000000000000000000800000000000,
|
|
100000000000000000000000000000000000000000000000,
|
|
100000000000000000000000000000000000000000000000,
|
|
000000000000200000000000000000000000000000000000,
|
|
000000000000200000000000000000000000000000000000,
|
|
300000000000000000000000000000000000000000300000,
|
|
000000000000000000000000000000000000000000600000,
|
|
000000000000000000000000000000000000000000000000,
|
|
000008000000000000000000000000000000000000000000,
|
|
100000000000000000000000000000000000000000000000,
|
|
000000000000000000000000000000000000000000000000,
|
|
300000000000000000000000000000000000000000000000,
|
|
000000000000000000000000100000000000000000000000,
|
|
100000000000000000000000000000000000000000000000,
|
|
100000000000000000000000000000000000000000000000,
|
|
100000000000000000000000100000000000000000700000,
|
|
000000000000000000000000000000000000000000000000,
|
|
800000000000000000000000000000000000000000000000,
|
|
|
|
#GOGOSTART
|
|
300000000000300000000000300000000000000000000000,
|
|
300000000000000000000000000000000000000000000000,
|
|
100000000000000000000000100000000000000000000000,
|
|
100000000000000000000000000000000000000000000000,
|
|
100000000000000000000000000000000000000000000000,
|
|
100000000000000000000000000000000000000000000000,
|
|
500000000000000000000000000000000000000000000000,
|
|
000000000000000008000000000000000000000000000000,
|
|
300000000000300000000000300000000000000000000000,
|
|
300000000000000000000000000000000000000000000000,
|
|
100000000000000000000000100000000000000000000000,
|
|
100000000000000000000000000000000000000000000000,
|
|
100000000000000000000000000000000000000000100000,
|
|
000000000000000000000000000000000000000000000000,
|
|
100000000000000000000000100000000000000000700000,
|
|
000000000000000000000000000000800000000000000000,
|
|
300000000000000000000000000000000000000000300000,
|
|
000000000000000000000000000000000000000000600000,
|
|
000000000000000000000000000008000000000000000000,
|
|
300000000000000000000000000000000000000000900000,
|
|
000000000000000000000000000000000000000000000000,
|
|
800000000000000000000000000000000000000000000000,
|
|
|
|
#GOGOEND
|
|
|
|
|
|
|
|
#END
|
|
|