Files
ESE-ja-fix/02 Anime/ignited/ignited.tja
T
2023-06-15 19:15:39 -05:00

253 lines
9.4 KiB
Plaintext

//TJADB Project
TITLE:ignited
TITLEJA:ignited-イグナイテッド-
SUBTITLE:--TMRevolution/Mobile Suit Gundam SEED DESTINY
BPM:155
WAVE:ignited.ogg
OFFSET:-1.567
DEMOSTART:54.192
COURSE:Oni
LEVEL:7
SCOREINIT:1010
SCOREDIFF:260
#START
300000000000000000000000000000000000000000000000,
300000000300000000300000000000000000000000000000,
300000000000000000200000000000100000100000000000,
300000000300000000300000500000000000000008000000,
100000100000200000000000100000200000000000000000,
100000100000200000000000100000200000000000000000,
100000100000200000000000100000200000000000000000,
100000100000200000000000100000200000000000000000,
100000100000200000000000100000200000100100100000,
100000100000200000000000100000200000000000100000,
100000100000200000000000100000200000100100100000,
100000100000200000000000100100100000200200200000,
100000000000200000100000000000200000100200200000,
100000000000200000100000000000200000100200200000,
100000000000200000100000000000200000100000200000,
100000100000200000000000100000200000000000000000,
100000100000200000000000100000200000100100100000,
100000100000200000000000100000200000000000100000,
100000100000200000000000100000200000100100100000,
100000100000200000000000100100100000200200200000,
100000000000200000100000000000200000100200200000,
100000000000200000100000000000200000100200200000,
100000000000200000100000000000200000100000200000,
100000100000200000000000100000200000000000000000,
100000200000100000000000100000200000100000000000,
100000100100200200100100200200200200200000200000,
100000200000100000000000100000200000100000000000,
100000000100000000100000000000000000000000000000,
100000200000100000000000100000200000100000000000,
100000100100200200100100200200200200200000200000,
100000100000200000100000100000200000100000200000,
100000100000200000100000100000200000100000200200,
200000000000200000000000200000200100000000100000,
300000000300000000300000000000000000000000000000,
#GOGOSTART
100000100000200000000100200000100000200100200000,
100000100000200000000100200000100000200200200000,
100000100000200000000100200000100000200100200000,
100000100000500000000000000000000008000000000000,
100000100000200000000100200000100000200100200000,
100000100000200000000100200000100000200200200000,
100000000000000000200000000000000000200000000000,
100000000000000000000000100000000000100000000000,
100000100000200000100000100000200000100000200000,
100100100100200200100100100100200200100100200200,
#GOGOEND
100000000000000000000000000000000000000000000000,
#END
COURSE:Hard
LEVEL:5
SCOREINIT:1100
SCOREDIFF:230
#START
300000000000000000000000000000000000000000000000,
300000000300000000300000000000000000000000000000,
300000000000000000200000000000100000100000000000,
300000000300000000300000500000000000000800000000,
100000100000200000000000100000100000000000000000,
100000100000200000000000200000200000000000000000,
100000100000200000000000100000100000000000000000,
100000100000200000000000200000200000000000000000,
100000100000200000000000100000200000000000000000,
100000100000200000000000100000200000000000000000,
100000100000200000000000100000200000000000000000,
100000100000200000000000100100100000200200200000,
100000000000200000100000000000200000100000200000,
100000000000200000100000000000200000100000200000,
100000000000200000100000000000200000100000200000,
100000100000200000000000100000000000000000000000,
100000100000200000000000100000200000000000000000,
100000100000200000000000100000200000000000000000,
100000100000200000000000100000200000000000000000,
100000100000200000000000100100100000200200200000,
100000000000200000100000000000200000100000200000,
100000000000200000100000000000200000100000200000,
100000000000200000100000000000200000100000200000,
100000100000200000000000100000000000000000000000,
100000200000100000000000100000200000100000000000,
100000200000100000000000200200200000200000000000,
100000200000100000000000100000200000100000000000,
100000000100000000100000000000000000000000000000,
100000200000100000000000100000200000100000000000,
100000200000100000000000200200200000200000000000,
100000100000200000100000100000200000100000000000,
100000100000200000100000100000200000000000200200,
200000000000200000000000200000200200000000100000,
300000000300000000300000000000000000000000000000,
#GOGOSTART
100000100000200000000100100000200000200000000000,
100000100000200000000100100000200000200000000000,
100000100000200000000100100000200000200000000000,
100000100000500000000000000000000800000000000000,
100000100000200000000100100000200000200000000000,
100000100000200000000100100000200000200000000000,
100000000000000000200000000000000000200000000000,
100000000000000000000000100000000000100000000000,
100000100000200000100000100000200000100000100000,
100000100000200000100000500000000000000000800000,
#GOGOEND
#END
COURSE:Normal
LEVEL:4
SCOREINIT:1000
SCOREDIFF:310
#START
300000000000000000000000000000000000000000000000,
300000000300000000300000000000000000000000000000,
300000000000000000000000000000000000000000000000,
300000000300000000300000000000000000000000000000,
100000000000200000000000100000100000000000000000,
100000000000200000000000100000100000000000000000,
100000000000200000000000100000100000000000000000,
100000000000200000000000000000000000000000000000,
100000100000100000000000100000100000000000000000,
100000100000100000000000200000000000000000000000,
100000100000100000000000100000100000000000000000,
100000000000100000000000200000000000000000000000,
100000000000200000200000000000100000000000000000,
100000000000200000200000000000100000000000000000,
100000000000200000200000000000100000000000000000,
100000100000100000000000100000000000000000000000,
100000100000100000000000100000100000000000000000,
100000100000100000000000200000000000000000000000,
100000100000100000000000100000100000000000000000,
100000000000100000000000200000000000000000000000,
100000000000200000200000000000100000000000000000,
100000000000200000200000000000100000000000000000,
100000000000200000200000000000100000000000000000,
100000100000100000000000100000000000000000000000,
100000100000200000000000100000100000200000000000,
100000000000000000000000200000000000000000000000,
100000100000200000000000100000100000200000000000,
100000000000000000000000000000000000000000000000,
100000100000200000000000100000100000200000000000,
100000000000000000000000200000000000000000000000,
100000100000100000000000200000000000000000000000,
100000100000100000000000200000000000000000000000,
500000000000000000000000000000800000000000000000,
300000000300000000300000000000000000000000000000,
#GOGOSTART
100000100000100000000000200000000000000000000000,
100000000000100000100000100000000000000000000000,
100000100000100000000000200000000000000000000000,
500000000000000000000000000000800000000000000000,
100000100000100000000000200000000000000000000000,
100000000000200000200000200000000000100000000000,
100000000000000000100000000000000000100000000000,
100000000000000000000000300000000000300000000000,
500000000000000000000000000000000000000000000000,
000000000000000000000000000000800000000000000000,
#GOGOEND
#END
COURSE:Easy
LEVEL:4
BALLOON:20
SCOREINIT:900
SCOREDIFF:380
#START
300000000000000000000000000000000000000000000000,
300000000000000000300000000000000000000000000000,
300000000000000000000000000000000000000000000000,
300000000000000000300000000000000000000000000000,
100000000000100000000000000000000000000000000000,
100000000000200000000000000000000000000000000000,
100000000000100000000000000000000000000000000000,
100000000000200000000000000000000000000000000000,
100000000000000000000000100000100000000000000000,
100000000000000000000000200000000000000000000000,
100000000000000000000000100000100000000000000000,
100000000000000000000000200000000000000000000000,
100000000000100000100000000000000000000000000000,
100000000000100000100000000000000000000000000000,
100000000000100000100000000000000000000000000000,
100000000000000000000000200000000000000000000000,
100000000000000000000000100000100000000000000000,
100000000000000000000000200000200000000000000000,
100000000000000000000000100000100000000000000000,
100000000000000000000000200000200000000000000000,
100000000000100000100000000000000000000000000000,
100000000000100000100000000000000000000000000000,
100000000000100000100000000000000000000000000000,
100000000000000000000000100000000000000000000000,
100000000000100000000000200000000000000000000000,
100000000000000000000000000000000000000000000000,
100000000000100000000000200000000000000000000000,
100000000000100000000000000000000000000000000000,
100000000000100000000000200000000000000000000000,
100000000000000000000000000000000000000000000000,
100000000000000000100000000000000000100000000000,
100000000000000000100000000000000000100000000000,
500000000000000000000000000000800000000000000000,
300000000000000000000000000000000000000000000000,
#GOGOSTART
100000100000100000000000000000000000000000000000,
100000100000100000000000000000000000000000000000,
100000000000100000000000200000000000000000000000,
500000000000000000000000000000800000000000000000,
100000100000100000000000000000000000000000000000,
100000100000100000000000000000000000000000000000,
100000000000100000000000200000000000000000000000,
100000000000000000000000300000000000300000000000,
900000000000000000000000000000000000000000000000,
000000000000000000000000800000000000000000000000,
#GOGOEND
#END