forked from ESE/ESE
435 lines
8.6 KiB
Plaintext
435 lines
8.6 KiB
Plaintext
//TJADB Project
|
|
TITLE:last cross
|
|
TITLEJA:last cross
|
|
SUBTITLE:--Masami Mitsuoka/Katekyo Hitman REBORN!
|
|
SUBTITLEJA:「家庭教師HITMAN REBORN!」主題曲
|
|
BPM:146
|
|
WAVE:last cross.ogg
|
|
OFFSET:-0.587
|
|
DEMOSTART:51.100
|
|
BGMOVIE:last cross.mp4
|
|
|
|
COURSE:Oni
|
|
LEVEL:7
|
|
BALLOON:30
|
|
SCOREINIT:920
|
|
SCOREDIFF:230
|
|
|
|
|
|
#START
|
|
|
|
|
|
200000100000100000200000100100100000200000100000,
|
|
100000200200200000100000200000100000100000200000,
|
|
100100100000200000100000100000200200200000100000,
|
|
000000200000200000100000000000000000000000000000,
|
|
000000000000000000000000000000000000000000000000,
|
|
100000000100200000000000100100100000200000000000,
|
|
100000000100200000000000100100100000200000000000,
|
|
100000000100200000000000100100100000200000000000,
|
|
100100200000100100200000100000200200200000100000,
|
|
100000000100200000000000100100100000200000000000,
|
|
100000000100200000000000100100100000200000000000,
|
|
100000000100200000000000100100100000200000000000,
|
|
100100200000100100200000100000000000200200200200,
|
|
100000000000200000100000000000100000200000000000,
|
|
100000000000200000100000000000100000200000000000,
|
|
100100100000200000000000100100100000200000000000,
|
|
100100100000200000100000000000000000200000200200,
|
|
100000000000200000100000000000100000200000000000,
|
|
100000000000200000100000000000100000200000000000,
|
|
100100100000200000100000000000100000000000100000,
|
|
000000200000100000200000000000200000000000000000,
|
|
100000100100100000100100100000100100100000100100,
|
|
100000100100100000100100100000300000000000000000,
|
|
100000100100100000100100100000100100100000100100,
|
|
100000100100100000100100100000300000000000000000,
|
|
100000000000200000100000000000100000200000000000,
|
|
000000100000200000000000000000100100100000100000,
|
|
000000000000500000000000000000000008000000000000,
|
|
100000100000000000000000000000000000000000100000,
|
|
100000000000000000000000000000300000000000000000,
|
|
000000000000000000000000000000000000000000000000,
|
|
|
|
#GOGOSTART
|
|
100000000100200000100000100100100000200000100000,
|
|
100000000100200000100000100100100000200000100000,
|
|
100000000100200000100000100100100000200000100000,
|
|
100000000100200000100000100100100000200000000000,
|
|
100000000100200000100000000000100000200000000000,
|
|
100000000100200000100000000000100000200000000000,
|
|
500000000000000000000000000000000000000000000008,
|
|
000000000000000000000000000000000000000000000000,
|
|
100000000100200000100000100200100000200000100000,
|
|
100000000100200000100000100200100000200000000000,
|
|
100000000100200000100000100200100000200000100000,
|
|
100000000100200000100000100200100000200000000000,
|
|
100000000100200000100000000000100000200000000000,
|
|
100000000100200000100000000000100000200000000000,
|
|
300000000000000000300000000000300000000000300000,
|
|
000000000000000000000000000000000000000000000000,
|
|
100000000100200000100000100100100000200000000000,
|
|
100000000100200000100000100100100000200000700000,
|
|
000000000000000000000000000000000000000000000000,
|
|
000000000000000000000000000000000000000000000008,
|
|
|
|
#GOGOEND
|
|
|
|
|
|
#END
|
|
|
|
|
|
COURSE:Hard
|
|
LEVEL:6
|
|
BALLOON:20
|
|
SCOREINIT:870
|
|
SCOREDIFF:210
|
|
|
|
|
|
#START
|
|
|
|
|
|
1011,
|
|
1011,
|
|
10001001,
|
|
01110000,
|
|
,
|
|
|
|
#SECTION
|
|
#BRANCHSTART p,75,999
|
|
#N
|
|
10201120,
|
|
10201120,
|
|
10201120,
|
|
1020102010111000,
|
|
10201120,
|
|
10201120,
|
|
10201121,
|
|
12121000,
|
|
|
|
#E
|
|
10210120,
|
|
10210121,
|
|
10210120,
|
|
1011100010111000,
|
|
10210120,
|
|
10210121,
|
|
10210120,
|
|
11212000,
|
|
|
|
#M
|
|
10210120,
|
|
10210121,
|
|
10210120,
|
|
1011100010111000,
|
|
10210120,
|
|
10210121,
|
|
10210120,
|
|
11212000,
|
|
|
|
#SECTION
|
|
#BRANCHSTART p,75,90
|
|
#N
|
|
10200120,
|
|
10200120,
|
|
11201120,
|
|
11210000,
|
|
10200120,
|
|
11101110,
|
|
40040004,
|
|
,
|
|
|
|
#E
|
|
1000200011102000,
|
|
1000200011102000,
|
|
11201120,
|
|
11210120,
|
|
1000200011102000,
|
|
10211120,
|
|
30030013,
|
|
0000103000111000,
|
|
|
|
#M
|
|
1000200011102000,
|
|
1000201011102000,
|
|
1110200011102000,
|
|
1110201000102000,
|
|
1000200011102000,
|
|
1000201011102000,
|
|
3000203001102030,
|
|
0010203000112000,
|
|
|
|
#SECTION
|
|
#BRANCHSTART p,75,90
|
|
#N
|
|
1111,
|
|
10101100,
|
|
1111,
|
|
10101100,
|
|
1202,
|
|
00200111,
|
|
,
|
|
30000001,
|
|
10000300,
|
|
,
|
|
|
|
#E
|
|
11101110,
|
|
11101400,
|
|
11101110,
|
|
11101400,
|
|
10210121,
|
|
01210125,
|
|
000000000000000000000000000008000000000000000000,
|
|
30000001,
|
|
30000300,
|
|
,
|
|
|
|
#M
|
|
1011101110101000,
|
|
1011101110400000,
|
|
1011101110101000,
|
|
1011101110400010,
|
|
1001201000102010,
|
|
01210125,
|
|
000000000000000000000000000008000000000000000000,
|
|
30000002,
|
|
30000300,
|
|
,
|
|
|
|
#GOGOSTART
|
|
#SECTION
|
|
#BRANCHSTART p,75,90
|
|
#N
|
|
1010200011102010,
|
|
1010200011102000,
|
|
1010200011102010,
|
|
1010200011102000,
|
|
1110201000102000,
|
|
1110201000102000,
|
|
500000000000000000000000000000000000000000000008,
|
|
,
|
|
|
|
#E
|
|
10210121,
|
|
01110011,
|
|
10210121,
|
|
01100011,
|
|
10210120,
|
|
11211201,
|
|
10211025,
|
|
000000000000000000000000000000000008000000000000,
|
|
|
|
#M
|
|
1001201000102010,
|
|
01110011,
|
|
1001201000102010,
|
|
01100011,
|
|
1001201000102010,
|
|
11211201,
|
|
1001201010012050,
|
|
000000000000000000000000000000000008000000000000,
|
|
|
|
#SECTION
|
|
#BRANCHSTART p,75,90
|
|
#N
|
|
10210121,
|
|
01201200,
|
|
10210121,
|
|
01201200,
|
|
10200120,
|
|
10200120,
|
|
30030303,
|
|
,
|
|
|
|
#E
|
|
10210121,
|
|
01110011,
|
|
10210121,
|
|
01100011,
|
|
10210021,
|
|
1000201000100011,
|
|
10110105,
|
|
000000000000000000000008000000000000000000000000,
|
|
|
|
#M
|
|
1001201000102010
|
|
01110011,
|
|
1001201000102010,
|
|
01100011,
|
|
1001201000002010,
|
|
1001201000100011,
|
|
10110105,
|
|
000000000000000000000008000000000000000000000000,
|
|
|
|
#SECTION
|
|
#BRANCHSTART p,75,90
|
|
#N
|
|
11211000,
|
|
1110201000102070,
|
|
,
|
|
,
|
|
#GOGOEND
|
|
8,
|
|
|
|
#E
|
|
11211001,
|
|
10210205,
|
|
000000000000000000000000000000000000000000000008,
|
|
,
|
|
#GOGOEND
|
|
3,
|
|
|
|
#M
|
|
11211001,
|
|
10210205,
|
|
000000000000000000000000000000000000000000000008,
|
|
0000000000111110,
|
|
#GOGOEND
|
|
3,
|
|
|
|
#BRANCHEND
|
|
|
|
|
|
|
|
#END
|
|
|
|
|
|
COURSE:Normal
|
|
LEVEL:5
|
|
BALLOON:10
|
|
SCOREINIT:1410
|
|
SCOREDIFF:480
|
|
|
|
|
|
#START
|
|
|
|
|
|
1,
|
|
1,
|
|
10000001,
|
|
01110000,
|
|
,
|
|
1202,
|
|
0202,
|
|
0202,
|
|
0222,
|
|
1202,
|
|
0202,
|
|
0202,
|
|
1110,
|
|
12,
|
|
12,
|
|
11,
|
|
1,
|
|
11,
|
|
1111,
|
|
40040004,
|
|
,
|
|
1111,
|
|
1130,
|
|
1111,
|
|
1130,
|
|
1,
|
|
00000111,
|
|
,
|
|
3,
|
|
30000300,
|
|
,
|
|
|
|
#GOGOSTART
|
|
10201110,
|
|
10201110,
|
|
10201110,
|
|
1200,
|
|
10201110,
|
|
10201110,
|
|
5,
|
|
000000000000000000000008000000000000000000000000,
|
|
10202220,
|
|
500000000000000000000008000000000000000000000000,
|
|
10202220,
|
|
1100,
|
|
1,
|
|
10110100,
|
|
30030303,
|
|
,
|
|
11,
|
|
10010007,
|
|
,
|
|
000000000000000000000000000000000000000000000008,
|
|
|
|
#GOGOEND
|
|
|
|
|
|
#END
|
|
|
|
|
|
COURSE:Easy
|
|
LEVEL:4
|
|
BALLOON:5,8
|
|
SCOREINIT:1570
|
|
SCOREDIFF:430
|
|
|
|
|
|
#START
|
|
|
|
|
|
100000000000000000000000000000000000000000000000,
|
|
100000000000000000000000000000000000000000000000,
|
|
100000000000000000000000000000000000000000000000,
|
|
700000000000000000000000000000000000000000000000,
|
|
000000000000000000800000000000000000000000000000,
|
|
100000000000200000000000000000000000200000000000,
|
|
000000000000200000000000000000000000200000000000,
|
|
000000000000200000000000000000000000200000000000,
|
|
000000000000200000000000000000000000200000000000,
|
|
100000000000200000000000000000000000200000000000,
|
|
000000000000200000000000000000000000200000000000,
|
|
100000000000200000000000000000000000200000000000,
|
|
100000000000100000000000100000000000000000000000,
|
|
100000000000000000000000200000000000000000000000,
|
|
100000000000000000000000200000000000000000000000,
|
|
100000000000000000000000100000000000000000000000,
|
|
100000000000000000000000000000000000000000000000,
|
|
100000000000000000000000200000000000000000000000,
|
|
100000000000000000000000100000000000000000000000,
|
|
400000000000000000400000000000000000000000400000,
|
|
000000000000000000000000000000000000000000000000,
|
|
100000000000100000000000100000000000000000000000,
|
|
100000000000100000000000300000000000000000000000,
|
|
100000000000100000000000100000000000000000000000,
|
|
100000000000100000000000100000000000000000000000,
|
|
100000000000000000000000000000000000000000000000,
|
|
000000000000000000000000000000000000000000100000,
|
|
000000000000000000000000000000000000000000000000,
|
|
300000000000000000000000000000000000000000000000,
|
|
300000000000000000000000000000300000000000000000,
|
|
000000000000000000000000000000000000000000000000,
|
|
#GOGOSTART
|
|
100000000000000000000000100000000000100000000000,
|
|
100000000000000000000000000000000000000000000000,
|
|
100000000000000000000000100000000000100000000000,
|
|
100000000000100000000000000000000000000000000000,
|
|
100000000000000000000000000000000000000000000000,
|
|
100000000000000000000000100000000000000000000000,
|
|
500000000000000000000000000000000000000000000000,
|
|
000000000000000000800000000000000000000000000000,
|
|
100000000000000000000000100000000000100000000000,
|
|
100000000000000000000000000000000000000000000000,
|
|
100000000000000000000000100000000000100000000000,
|
|
100000000000000000000000000000000000000000000000,
|
|
100000000000000000000000000000000000000000000000,
|
|
100000000000000000000000000000000000000000000000,
|
|
300000000000000000300000000000300000000000300000,
|
|
000000000000000000000000000000000000000000000000,
|
|
100000000000000000000000100000000000000000000000,
|
|
100000000000000000100000000000000000000000900000,
|
|
000000000000000000000000000000000000000000000008,
|
|
|
|
#GOGOEND
|
|
|
|
|
|
#END
|
|
|