generated from DragonRatTiger/Custom-Charts
738 lines
11 KiB
Plaintext
738 lines
11 KiB
Plaintext
TITLE:Rust In Peace... Polaris
|
|
SUBTITLE:--Megadeth
|
|
BPM:160
|
|
WAVE:Rust In Peace... Polaris.ogg
|
|
PREIMAGE:Rust In Peace.png
|
|
OFFSET:-0.509
|
|
DEMOSTART:257.208
|
|
MAKER:CatBoat
|
|
BGIMAGE:Loading.png
|
|
BGMOVIE:.mp4
|
|
|
|
COURSE:Oni
|
|
LEVEL:10
|
|
SCOREINIT:600
|
|
SCOREDIFF:50
|
|
|
|
#START
|
|
#SCROLL 1.5
|
|
3131221131312211,
|
|
22201010221010102110101011101010,
|
|
#BPMCHANGE 158
|
|
#SCROLL 1.51899
|
|
3131221131312211,
|
|
22201010221010102110101011101010,
|
|
#BPMCHANGE 157
|
|
#SCROLL 1.52866
|
|
3131221131312211,
|
|
22201010221010102110101011101010,
|
|
#BPMCHANGE 154
|
|
#SCROLL 1.55844
|
|
3131221131312211,
|
|
#BPMCHANGE 158
|
|
#SCROLL 1.51899
|
|
22201010221010102110101011101010,
|
|
#GOGOSTART
|
|
#BPMCHANGE 155
|
|
#SCROLL 1.54839
|
|
3030222230302210,
|
|
1021122010211220,
|
|
3030222230302210,
|
|
#GOGOEND
|
|
#BPMCHANGE 153
|
|
#SCROLL 1.56863
|
|
3333,
|
|
#GOGOSTART
|
|
#BPMCHANGE 152
|
|
#SCROLL 1.57895
|
|
3030222230302210,
|
|
#BPMCHANGE 156
|
|
#SCROLL 1.53846
|
|
1021122010211220,
|
|
#BPMCHANGE 155
|
|
#SCROLL 1.54839
|
|
3030222230302210,
|
|
#GOGOEND
|
|
#BPMCHANGE 147
|
|
#SCROLL 1.63265
|
|
30300330,
|
|
#GOGOSTART
|
|
#BPMCHANGE 156
|
|
#SCROLL 1.53846
|
|
3030222230302210,
|
|
#BPMCHANGE 155
|
|
#SCROLL 1.54839
|
|
1021122010211220,
|
|
3030222230302210,
|
|
#GOGOEND
|
|
3333,
|
|
#GOGOSTART
|
|
#BPMCHANGE 153
|
|
#SCROLL 1.56863
|
|
3030222230302210,
|
|
#BPMCHANGE 154
|
|
#SCROLL 1.55844
|
|
1021122010211220,
|
|
#BPMCHANGE 155
|
|
#SCROLL 1.54839
|
|
3030222230302210,
|
|
#GOGOEND
|
|
#BPMCHANGE 151
|
|
#SCROLL 1.5894
|
|
3
|
|
#SCROLL 1.4
|
|
3
|
|
#SCROLL 1.3
|
|
3
|
|
#SCROLL 1.2
|
|
3
|
|
#SCROLL 1.15
|
|
3
|
|
#SCROLL 1.1
|
|
3,
|
|
#GOGOSTART
|
|
#BPMCHANGE 163
|
|
#SCROLL 0.981595
|
|
300000000111
|
|
#BPMCHANGE 148
|
|
#SCROLL 1.08108
|
|
200010000
|
|
#BPMCHANGE 177
|
|
#SCROLL 0.903955
|
|
100,
|
|
000100
|
|
#BPMCHANGE 162
|
|
#SCROLL 0.987654
|
|
200011101010101010,
|
|
#BPMCHANGE 168
|
|
#SCROLL 0.952381
|
|
100100000000000000000000000000000000000010001000100000001000000010000000100000001000000010000000,
|
|
#GOGOEND
|
|
#BPMCHANGE 162
|
|
#SCROLL 0.987654
|
|
200200000000000000000000000000000000000010000000400000000000000000000000400000000000000000000000,
|
|
#BPMCHANGE 164
|
|
#SCROLL 0.97561
|
|
300200111211,
|
|
#BPMCHANGE 167
|
|
#SCROLL 0.958084
|
|
101201100200,
|
|
#BPMCHANGE 169
|
|
#SCROLL 0.946746
|
|
100200111211,
|
|
#BPMCHANGE 165
|
|
#SCROLL 0.969697
|
|
101201100200,
|
|
#BPMCHANGE 168
|
|
#SCROLL 0.952381
|
|
100200111211,
|
|
#BPMCHANGE 169
|
|
#SCROLL 0.946746
|
|
101201100200,
|
|
#BPMCHANGE 171
|
|
#SCROLL 0.935673
|
|
100211111211,
|
|
#BPMCHANGE 169
|
|
#SCROLL 0.946746
|
|
100211400400,
|
|
300200111211,
|
|
#BPMCHANGE 165
|
|
#SCROLL 0.969697
|
|
101201100200,
|
|
#BPMCHANGE 167
|
|
#SCROLL 0.958084
|
|
100200111211,
|
|
101201100200,
|
|
100200111211,
|
|
#BPMCHANGE 169
|
|
#SCROLL 0.946746
|
|
101201100200,
|
|
#BPMCHANGE 170
|
|
#SCROLL 0.941176
|
|
100211111211,
|
|
100211400400,
|
|
#BPMCHANGE 167
|
|
#SCROLL 0.958084
|
|
300222
|
|
#BPMCHANGE 173
|
|
#SCROLL 0.924855
|
|
201200,
|
|
#BPMCHANGE 166
|
|
#SCROLL 0.963855
|
|
101200400400,
|
|
#BPMCHANGE 169
|
|
#SCROLL 0.946746
|
|
300222201200,
|
|
#BPMCHANGE 168
|
|
#SCROLL 0.952381
|
|
101200400400,
|
|
#BPMCHANGE 170
|
|
#SCROLL 0.941176
|
|
300222201200,
|
|
#BPMCHANGE 168
|
|
#SCROLL 0.952381
|
|
101200400400,
|
|
300222201200,
|
|
#BPMCHANGE 164
|
|
#SCROLL 0.97561
|
|
101200400400,
|
|
#GOGOSTART
|
|
#BPMCHANGE 171
|
|
#SCROLL 0.935673
|
|
301211101211,
|
|
#BPMCHANGE 166
|
|
#SCROLL 0.963855
|
|
101211303030,
|
|
#BPMCHANGE 169
|
|
#SCROLL 0.946746
|
|
301211101211,
|
|
#BPMCHANGE 168
|
|
#SCROLL 0.952381
|
|
101211303030,
|
|
#BPMCHANGE 172
|
|
#SCROLL 0.930233
|
|
301211101211,
|
|
#BPMCHANGE 168
|
|
#SCROLL 0.952381
|
|
101211303030,
|
|
#BPMCHANGE 170
|
|
#SCROLL 0.941176
|
|
301211101211,
|
|
101211303031,
|
|
301211101211,
|
|
#BPMCHANGE 173
|
|
#SCROLL 0.924855
|
|
101211
|
|
#BPMCHANGE 164
|
|
#SCROLL 0.97561
|
|
303030,
|
|
#BPMCHANGE 172
|
|
#SCROLL 0.930233
|
|
301211101211,
|
|
#BPMCHANGE 180
|
|
#SCROLL 0.888889
|
|
101211
|
|
#BPMCHANGE 164
|
|
#SCROLL 0.97561
|
|
303031,
|
|
#BPMCHANGE 172
|
|
#SCROLL 0.930233
|
|
301211101211,
|
|
101211
|
|
#BPMCHANGE 165
|
|
#SCROLL 0.969697
|
|
303030,
|
|
#BPMCHANGE 173
|
|
#SCROLL 0.924855
|
|
301211101211,
|
|
#GOGOEND
|
|
#BPMCHANGE 173
|
|
202020111010111010111010,
|
|
#GOGOSTART
|
|
#BPMCHANGE 169
|
|
#SCROLL 0.946746
|
|
402010201011202010202010,
|
|
201011201010
|
|
#BPMCHANGE 165
|
|
#SCROLL 0.969697
|
|
300030003000,
|
|
#BPMCHANGE 171
|
|
#SCROLL 0.935673
|
|
402010201011202010202010,
|
|
201011201010300030003000,
|
|
#BPMCHANGE 173
|
|
#SCROLL 0.924855
|
|
402010201011202010202010,
|
|
#BPMCHANGE 170
|
|
#SCROLL 0.941176
|
|
201011201010300030003000,
|
|
#BPMCHANGE 173
|
|
#SCROLL 0.924855
|
|
402010201011202010202010,
|
|
#BPMCHANGE 169
|
|
#SCROLL 0.946746
|
|
201011201010
|
|
#BPMCHANGE 165
|
|
#SCROLL 0.969697
|
|
3000
|
|
#BPMCHANGE 160
|
|
#SCROLL 1
|
|
30003000,
|
|
#MEASURE 2/4
|
|
#BPMCHANGE 167
|
|
#SCROLL 0.958084
|
|
333,
|
|
#MEASURE 4/4
|
|
#GOGOEND
|
|
300001400
|
|
#BPMCHANGE 158
|
|
#SCROLL 1.01266
|
|
400,
|
|
#BPMCHANGE 164
|
|
#SCROLL 0.97561
|
|
300200
|
|
#BPMCHANGE 173
|
|
#SCROLL 0.924855
|
|
111211,
|
|
#BPMCHANGE 166
|
|
#SCROLL 0.963855
|
|
101201100200,
|
|
100200111211,
|
|
#BPMCHANGE 168
|
|
#SCROLL 0.952381
|
|
101201100200,
|
|
100200111211,
|
|
101201100200,
|
|
100211111211,
|
|
100211400400,
|
|
#BPMCHANGE 170
|
|
#SCROLL 0.941176
|
|
300222201200,
|
|
#BPMCHANGE 166
|
|
#SCROLL 0.963855
|
|
101200400400,
|
|
#BPMCHANGE 170
|
|
#SCROLL 0.941176
|
|
300222201200,
|
|
#BPMCHANGE 168
|
|
#SCROLL 0.952381
|
|
101200400400,
|
|
#BPMCHANGE 171
|
|
#SCROLL 0.935673
|
|
300222201200,
|
|
#BPMCHANGE 166
|
|
#SCROLL 0.963855
|
|
101200400400,
|
|
#BPMCHANGE 169
|
|
#SCROLL 0.946746
|
|
300222201200,
|
|
#BPMCHANGE 164
|
|
#SCROLL 0.97561
|
|
101200400400,
|
|
#GOGOSTART
|
|
#BPMCHANGE 171
|
|
#SCROLL 0.935673
|
|
301211101211,
|
|
#BPMCHANGE 162
|
|
#SCROLL 0.987654
|
|
101211303030,
|
|
#BPMCHANGE 169
|
|
#SCROLL 0.946746
|
|
301211101211,
|
|
101211
|
|
#BPMCHANGE 160
|
|
#SCROLL 1
|
|
303031,
|
|
#BPMCHANGE 173
|
|
#SCROLL 0.924855
|
|
301211101211,
|
|
101211
|
|
#BPMCHANGE 161
|
|
#SCROLL 0.993789
|
|
303030,
|
|
#BPMCHANGE 171
|
|
#SCROLL 0.935673
|
|
301211101211,
|
|
#BPMCHANGE 174
|
|
#SCROLL 0.91954
|
|
101211
|
|
#BPMCHANGE 162
|
|
#SCROLL 0.987654
|
|
303031,
|
|
#BPMCHANGE 174
|
|
#SCROLL 0.91954
|
|
301211101211,
|
|
#BPMCHANGE 170
|
|
#SCROLL 0.941176
|
|
101211
|
|
#BPMCHANGE 161
|
|
#SCROLL 0.993789
|
|
303030,
|
|
#BPMCHANGE 174
|
|
#SCROLL 0.91954
|
|
301211101211,
|
|
#BPMCHANGE 165
|
|
#SCROLL 0.969697
|
|
101211303030,
|
|
#BPMCHANGE 174
|
|
#SCROLL 0.91954
|
|
301211101211,
|
|
101211
|
|
#BPMCHANGE 163
|
|
#SCROLL 0.981595
|
|
303030,
|
|
#BPMCHANGE 173
|
|
#SCROLL 0.924855
|
|
301211101211,
|
|
#GOGOEND
|
|
#BPMCHANGE 171
|
|
#SCROLL 0.935673
|
|
202020111010111010111010,
|
|
#GOGOSTART
|
|
402010201011202010202010,
|
|
#BPMCHANGE 167
|
|
#SCROLL 0.958084
|
|
201011201010300030003000,
|
|
#BPMCHANGE 169
|
|
#SCROLL 0.946746
|
|
402010201011202010202010,
|
|
201011201010300030003000,
|
|
#BPMCHANGE 168
|
|
#SCROLL 0.952381
|
|
402010201011202010202010,
|
|
201011201010300030003000,
|
|
#BPMCHANGE 170
|
|
#SCROLL 0.941176
|
|
402010201011202010202010,
|
|
#BPMCHANGE 165
|
|
#SCROLL 0.969697
|
|
201011201010300030003000,
|
|
#MEASURE 2/4
|
|
333,
|
|
#MEASURE 4/4
|
|
#GOGOEND
|
|
#BPMCHANGE 168
|
|
#SCROLL 0.952381
|
|
3000000111
|
|
#SCROLL 1.42857
|
|
40000
|
|
#SCROLL 0.952381
|
|
40000,
|
|
#BPMCHANGE 167
|
|
300200111211,
|
|
#BPMCHANGE 171
|
|
#SCROLL 0.935673
|
|
101201100200,
|
|
#BPMCHANGE 170
|
|
#SCROLL 0.941176
|
|
100200111211,
|
|
#BPMCHANGE 166
|
|
#SCROLL 0.963855
|
|
101201100200,
|
|
#BPMCHANGE 168
|
|
#SCROLL 0.952381
|
|
100200111211,
|
|
101201100200,
|
|
#BPMCHANGE 171
|
|
#SCROLL 0.935673
|
|
100211111211,
|
|
#BPMCHANGE 169
|
|
#SCROLL 0.946746
|
|
101201400400,
|
|
300222201200,
|
|
#BPMCHANGE 167
|
|
#SCROLL 0.958084
|
|
101200400400,
|
|
#BPMCHANGE 171
|
|
#SCROLL 0.935673
|
|
300222201200,
|
|
#BPMCHANGE 167
|
|
#SCROLL 0.958084
|
|
101200400400,
|
|
#BPMCHANGE 168
|
|
#SCROLL 0.952381
|
|
300222201200,
|
|
101200400400,
|
|
100222201200,
|
|
#BPMCHANGE 163
|
|
#SCROLL 0.981595
|
|
101211400400,
|
|
#GOGOSTART
|
|
#BPMCHANGE 168
|
|
#SCROLL 0.952381
|
|
301211101211,
|
|
#BPMCHANGE 166
|
|
#SCROLL 0.963855
|
|
101211303030,
|
|
#BPMCHANGE 169
|
|
#SCROLL 0.946746
|
|
301211101211,
|
|
#BPMCHANGE 173
|
|
#SCROLL 0.924855
|
|
101211
|
|
#BPMCHANGE 167
|
|
#SCROLL 0.958084
|
|
303031,
|
|
#BPMCHANGE 171
|
|
#SCROLL 0.935673
|
|
301211101211,
|
|
#BPMCHANGE 168
|
|
#SCROLL 0.952381
|
|
101211303030,
|
|
#BPMCHANGE 170
|
|
#SCROLL 0.941176
|
|
301211101211,
|
|
101211
|
|
#BPMCHANGE 166
|
|
#SCROLL 0.963855
|
|
303031,
|
|
#BPMCHANGE 173
|
|
#SCROLL 0.924855
|
|
301211101211,
|
|
101211
|
|
#BPMCHANGE 163
|
|
#SCROLL 0.981595
|
|
303030,
|
|
#BPMCHANGE 172
|
|
#SCROLL 0.930233
|
|
301211101211,
|
|
#BPMCHANGE 169
|
|
#SCROLL 0.946746
|
|
10121130
|
|
#BPMCHANGE 160
|
|
#SCROLL 1
|
|
3031,
|
|
#BPMCHANGE 176
|
|
#SCROLL 0.909091
|
|
301211101211,
|
|
#BPMCHANGE 176
|
|
#SCROLL 0.909091
|
|
101211
|
|
#BPMCHANGE 166
|
|
#SCROLL 0.963855
|
|
303030,
|
|
#BPMCHANGE 174
|
|
#SCROLL 0.91954
|
|
301211101211,
|
|
#GOGOEND
|
|
202020111010111010111010,
|
|
#GOGOSTART
|
|
#BPMCHANGE 171
|
|
#SCROLL 0.935673
|
|
402010201011202010202010,
|
|
#BPMCHANGE 167
|
|
#SCROLL 0.958084
|
|
201011201010300030003000,
|
|
#BPMCHANGE 172
|
|
#SCROLL 0.930233
|
|
402010201011202010202010,
|
|
#BPMCHANGE 168
|
|
#SCROLL 0.952381
|
|
201011201010300030003000,
|
|
#BPMCHANGE 170
|
|
#SCROLL 0.941176
|
|
402010201011202010202010,
|
|
201011201010300030003000,
|
|
#BPMCHANGE 172
|
|
#SCROLL 0.930233
|
|
402010201011202010202010,
|
|
#BPMCHANGE 171
|
|
#SCROLL 0.935673
|
|
201011201010
|
|
#BPMCHANGE 167
|
|
#SCROLL 0.958084
|
|
300030003000,
|
|
#MEASURE 2/4
|
|
#BPMCHANGE 163
|
|
#SCROLL 0.981595
|
|
333,
|
|
#MEASURE 4/4
|
|
#GOGOEND
|
|
3
|
|
#BARLINEOFF
|
|
000,
|
|
#BPMCHANGE 150
|
|
0,
|
|
,
|
|
#BPMCHANGE 99
|
|
0,
|
|
#BPMCHANGE 150
|
|
0,
|
|
,
|
|
,
|
|
#BPMCHANGE 126
|
|
000
|
|
#BPMCHANGE 147
|
|
#SCROLL 1.02041
|
|
4,
|
|
#BARLINEON
|
|
3010211010110120,
|
|
1010211010110120,
|
|
1010211010110120,
|
|
#BPMCHANGE 150
|
|
#SCROLL 1
|
|
100000100000200100100000100000101010
|
|
#BPMCHANGE 142
|
|
#SCROLL 1.69014
|
|
400000000000,
|
|
#BPMCHANGE 149
|
|
#SCROLL 1.00671
|
|
3010211010110120,
|
|
3010211010110120,
|
|
#BPMCHANGE 148
|
|
#SCROLL 1.01351
|
|
3010211010110120,
|
|
100000100000200100100000100000101010
|
|
#BPMCHANGE 138
|
|
#SCROLL 1.73913
|
|
400000000000,
|
|
#MEASURE 2/4
|
|
#GOGOSTART
|
|
#BPMCHANGE 143
|
|
#SCROLL 2.0979
|
|
3010201110102020,
|
|
100000100000200000100100100000100000200020002000,
|
|
#BPMCHANGE 147
|
|
#SCROLL 2.04082
|
|
100200102020100100202020,
|
|
100010002000200010002000100000200000200200200200,
|
|
#BPMCHANGE 144
|
|
#SCROLL 2.08333
|
|
221122111222,
|
|
101020201010202020100100,
|
|
#BPMCHANGE 146
|
|
#SCROLL 2.05479
|
|
1010201110102010,
|
|
222020111010
|
|
#GOGOEND
|
|
2010,
|
|
#GOGOSTART
|
|
202020100100102020100100,
|
|
1110201011102010,
|
|
#BPMCHANGE 148
|
|
#SCROLL 2.02703
|
|
202020100100102020100100,
|
|
1110201011102010,
|
|
202020100100102020100100,
|
|
1110201011102010,
|
|
2020101011101010,
|
|
#MEASURE 4/4
|
|
#GOGOEND
|
|
#BPMCHANGE 147
|
|
#SCROLL 1.02041
|
|
21120120
|
|
#BPMCHANGE 145
|
|
#SCROLL 1.03448
|
|
21120120,
|
|
2112012021120120,
|
|
#MEASURE 2/4
|
|
#GOGOSTART
|
|
#BPMCHANGE 148
|
|
#SCROLL 2.02703
|
|
202020100100102020100100,
|
|
1110201011102010,
|
|
#BPMCHANGE 147
|
|
#SCROLL 2.04082
|
|
202020100100102020100100,
|
|
1110201011102010,
|
|
202020100100102020100100,
|
|
1110201011102010,
|
|
2020101011101010,
|
|
#MEASURE 4/4
|
|
#GOGOEND
|
|
#SCROLL 1.02041
|
|
2112012021120120,
|
|
2112012021120120,
|
|
#MEASURE 2/4
|
|
#GOGOSTART
|
|
#BPMCHANGE 146
|
|
#SCROLL 2.05479
|
|
202020100100102020100100,
|
|
1110201011102010,
|
|
#BPMCHANGE 148
|
|
#SCROLL 2.02703
|
|
202020100100102020100100,
|
|
1120201022202010,
|
|
202020100100102020100100,
|
|
2020101011101010,
|
|
#BPMCHANGE 153
|
|
#SCROLL 1.96078
|
|
2020101011101010,
|
|
#MEASURE 4/4
|
|
#GOGOEND
|
|
#BPMCHANGE 146
|
|
#SCROLL 1.0274
|
|
2112012021120120,
|
|
#BPMCHANGE 149
|
|
#SCROLL 1.00671
|
|
2112012021120120,
|
|
#MEASURE 2/4
|
|
#GOGOSTART
|
|
#BPMCHANGE 147
|
|
#SCROLL 2.04082
|
|
202020100100102020100100,
|
|
1110201011102010,
|
|
202020100100102020100100,
|
|
1120201022202010,
|
|
#BPMCHANGE 150
|
|
#SCROLL 2
|
|
202020100100102020100100,
|
|
2020101011101010,
|
|
2020101011101010,
|
|
#MEASURE 4/4
|
|
#GOGOEND
|
|
#BPMCHANGE 147
|
|
#SCROLL 1.02041
|
|
2112012021120120,
|
|
#BPMCHANGE 148
|
|
#SCROLL 1.01351
|
|
2112012021120120,
|
|
#MEASURE 2/4
|
|
#GOGOSTART
|
|
#BPMCHANGE 149
|
|
#SCROLL 2.01342
|
|
202020100100102020100100,
|
|
1110201011102010,
|
|
202020100100102020100100,
|
|
1120201022202010,
|
|
202020100100102020100100,
|
|
2020101011101010,
|
|
2020101011101010,
|
|
#MEASURE 4/4
|
|
#GOGOEND
|
|
#BPMCHANGE 147
|
|
#SCROLL 1.02041
|
|
2112012021120120,
|
|
#BPMCHANGE 148
|
|
#SCROLL 1.01351
|
|
2112012021120120,
|
|
#MEASURE 2/4
|
|
#GOGOSTART
|
|
#SCROLL 2.02703
|
|
202020100100102020100100,
|
|
1110201011102010,
|
|
202020100100102020100100,
|
|
1120201022202010,
|
|
#BPMCHANGE 146
|
|
#SCROLL 2.05479
|
|
202020100100102020100100,
|
|
#BPMCHANGE 149
|
|
#SCROLL 2.01342
|
|
2020101011101010,
|
|
2020101011101010,
|
|
#MEASURE 4/4
|
|
#GOGOEND
|
|
#BPMCHANGE 147
|
|
#SCROLL 1.02041
|
|
2112012021120120,
|
|
2112012021120120,
|
|
2112012021120120,
|
|
#BPMCHANGE 145
|
|
#SCROLL 1.03448
|
|
2112012021120120,
|
|
#BPMCHANGE 148
|
|
#SCROLL 1.01351
|
|
1010211010110120,
|
|
1010211010110120,
|
|
1010211010110120,
|
|
#BPMCHANGE 150
|
|
#SCROLL 1
|
|
100000100000200100100000100000101010
|
|
#SCROLL 1.6
|
|
400000000000,
|
|
#GOGOSTART
|
|
#BPMCHANGE 147
|
|
#SCROLL 1.29932
|
|
2011201120112011,
|
|
#BPMCHANGE 148
|
|
#SCROLL 1.29054
|
|
2011211120112011,
|
|
2111211121112111,
|
|
#BPMCHANGE 142
|
|
#SCROLL 1.34507
|
|
2010201011101010
|
|
#GOGOEND
|
|
4000000000000000,
|
|
,
|
|
#END
|