Files
2026-03-03 03:10:19 +01:00

573 lines
6.4 KiB
Plaintext

TITLE:Bad
SUBTITLE:--Michael Jackson
BPM:129.17
WAVE:Bad.ogg
PREIMAGE:Bad.png
OFFSET:-0.643
DEMOSTART:126.354
MAKER:CatBoat
BGIMAGE:Loading.png
BGMOVIE:.mp4
COURSE:Oni
LEVEL:9
SCOREINIT:600
SCOREDIFF:50
#START
#MEASURE 3/4
#SCROLL 0.882558
3
#BPMCHANGE 118.17
#SCROLL 0.964712
3
#SCROLL 0.964712
3
#BPMCHANGE 93.17
#SCROLL 1.22357
3,
#MEASURE 4/4
#BPMCHANGE 114.17
#SCROLL 1
1222120212221010,
0012122212221010,
1222120212221010,
0012122212221010,
1222120212221010,
#BPMCHANGE 113.17
0012122212221010,
#BPMCHANGE 114.17
1222120212221010,
0012122212221010,
1222120212221010,
0012122212221010,
1222120212221010,
0012122212221010,
1222120212221010,
0012122212221010,
#BPMCHANGE 113.17
1222120212221010,
#BPMCHANGE 114.17
0012122212221010,
1222120212221010,
0012122212221010,
1222120212221010,
0012122212221010,
1222120212221010,
#BPMCHANGE 113.17
0012122212221010,
#BPMCHANGE 114.17
1222120212221010,
0012122212221010,
1222120212221010,
0012122212221010,
1222120212221010,
0012122212221022,
1202102212021012,
1202102012221012,
2020102212021022,
#GOGOSTART
#SCROLL 2
300000
#GOGOEND
#SCROLL 1
200200
#GOGOSTART
#SCROLL 2
3000
#SCROLL 1
00
#GOGOEND
200200
#GOGOSTART
#SCROLL 2
300000
#GOGOEND
#SCROLL 1
200100200000200000,
#GOGOSTART
#SCROLL 1.5
3
#SCROLL 1
2
#GOGOEND
22
#GOGOSTART
#SCROLL 1.5
30
#GOGOEND
#SCROLL 1
20
#GOGOSTART
#SCROLL 1.5
30
#SCROLL 1
221010,
#BPMCHANGE 113.17
201010200000100200000200100200200200100000
#GOGOEND
100000,
#GOGOSTART
#BPMCHANGE 114.17
#SCROLL 1.5
3
#SCROLL 1
2
#GOGOEND
22
#GOGOSTART
#SCROLL 1.5
30
#GOGOEND
#SCROLL 1
20
#GOGOSTART
#SCROLL 1.5
30
#SCROLL 1
221010,
201010200000100200000200100200200200100000
#GOGOEND
100000,
#GOGOSTART
#SCROLL 1.5
3
#SCROLL 1
2
#GOGOEND
22
#GOGOSTART
#SCROLL 1.5
30
#GOGOEND
#SCROLL 1
20
#GOGOSTART
#SCROLL 1.5
30
#SCROLL 1
221010,
201010200000100200000200100200200200100000200200,
1020120210201022,
20201012
#GOGOEND
10
#SCROLL 2
4030
#SCROLL 1
10,
1222120212221010,
0012122212221010,
1222120212221010,
0012122212221010,
1222120212221010,
0012122212221010,
1222120212221010,
0012122212221010,
1222120212221010,
0012122212221010,
1222120212221010,
0012122212221010,
1222120212221010,
0012122212221010,
1222120212221010,
#BPMCHANGE 113.17
0012122212221022,
#BPMCHANGE 114.17
1202102212021012,
1202102012221012,
2020102212021022,
#GOGOSTART
#SCROLL 2
300000
#GOGOEND
#SCROLL 1
200200
#GOGOSTART
#SCROLL 2
3000
#SCROLL 1
00
#GOGOEND
200200
#GOGOSTART
#SCROLL 2
300000
#GOGOEND
#SCROLL 1
200100200000200000,
#GOGOSTART
#SCROLL 1.5
3
#SCROLL 1
2
#GOGOEND
22
#GOGOSTART
#SCROLL 1.5
30
#GOGOEND
#SCROLL 1
20
#GOGOSTART
#SCROLL 1.5
30
#SCROLL 1
221010,
201010200000100200000200100200200200100000
#GOGOEND
100000,
#GOGOSTART
#BPMCHANGE 115.17
#SCROLL 1.5
3
#SCROLL 1
2
#GOGOEND
22
#GOGOSTART
#SCROLL 1.5
30
#GOGOEND
#SCROLL 1
20
#GOGOSTART
#SCROLL 1.5
30
#SCROLL 1
221010,
#BPMCHANGE 114.17
201010200000100200000200100200200200100000
#GOGOEND
100000,
#GOGOSTART
#SCROLL 1.5
3
#SCROLL 1
2
#GOGOEND
22
#GOGOSTART
#SCROLL 1.5
30
#GOGOEND
#SCROLL 1
20
#GOGOSTART
#SCROLL 1.5
30
#SCROLL 1
221010,
201010200000100200000200100200200200100000200200,
1020120210201022,
20201012
#GOGOEND
10
#SCROLL 2
4030
#SCROLL 1
10,
1222120212221010,
0012122212221010,
100000200000200000200000100000200000000000200000100010001000200020001000200010001000200200200200,
100000100200102010200200100200200200100000100000,
100200200200100200202020100200200000100000100000,
200200000200101010200200100000200000202020102010,
122222122222122222122222,
122222122222122222122222,
1222102012221020,
100000100200100200200200101020100200100000202020,
100200200200102020100200100200202020100100102020,
100200202020100200200200100200000200100000200000,
1202102212021012,
1202102012221012,
2020102212021022,
#GOGOSTART
#SCROLL 2
300000
#GOGOEND
#SCROLL 1
200200
#GOGOSTART
#SCROLL 2
3000
#SCROLL 1
00
#GOGOEND
200200
#GOGOSTART
#SCROLL 2
300000
#GOGOEND
#SCROLL 1
200100200000200000,
#GOGOSTART
#SCROLL 1.5
3
#SCROLL 1
2
#GOGOEND
22
#GOGOSTART
#SCROLL 1.5
30
#GOGOEND
#SCROLL 1
20
#GOGOSTART
#SCROLL 1.5
30
#SCROLL 1
221010,
201010200000100200000200100200200200100000
#GOGOEND
100000,
#GOGOSTART
#SCROLL 1.5
3
#SCROLL 1
2
#GOGOEND
22
#GOGOSTART
#SCROLL 1.5
30
#GOGOEND
#SCROLL 1
20
#GOGOSTART
#SCROLL 1.5
30
#SCROLL 1
221010,
201010200000100200000200100200200200100000
#GOGOEND
100000,
#GOGOSTART
#SCROLL 1.5
3
#SCROLL 1
2
#GOGOEND
22
#GOGOSTART
#SCROLL 1.5
30
#GOGOEND
#SCROLL 1
20
#GOGOSTART
#SCROLL 1.5
30
#SCROLL 1
221010,
201010200000100200000200100200200200100000200200,
1020
#SCROLL 2
3
#SCROLL 1
2021020
#SCROLL 2
30
#SCROLL 1
22,
2020
#SCROLL 2
30
#SCROLL 1
12
#GOGOEND
12221010,
#GOGOSTART
#SCROLL 1.5
3
#SCROLL 1
2
#GOGOEND
22
#GOGOSTART
#SCROLL 1.5
30
#GOGOEND
#SCROLL 1
20
#GOGOSTART
#SCROLL 1.5
30
#SCROLL 1
221010,
201010200000100200000200100200200200100000
#GOGOEND
100000,
#GOGOSTART
#SCROLL 1.5
3
#SCROLL 1
2
#GOGOEND
22
#GOGOSTART
#SCROLL 1.5
30
#GOGOEND
#SCROLL 1
20
#GOGOSTART
#SCROLL 1.5
30
#SCROLL 1
221010,
201010200000100200000200100200200200100000
#GOGOEND
100000,
#GOGOSTART
#SCROLL 1.5
3
#SCROLL 1
2
#GOGOEND
22
#GOGOSTART
#SCROLL 1.5
30
#GOGOEND
#SCROLL 1
20
#GOGOSTART
#SCROLL 1.5
30
#SCROLL 1
221010,
201010200000100200000200100200200200100000200200,
1020120210201022,
20201012
#GOGOEND
12221010,
#GOGOSTART
101010
#GOGOEND
200000
#GOGOSTART
#SCROLL 1.5
300000
#GOGOEND
#SCROLL 1
200000
#GOGOSTART
#SCROLL 1.5
300000
#SCROLL 1
200200100000100000,
201010200000100200000200100200200200100000
#GOGOEND
100000,
#GOGOSTART
102020
#GOGOEND
200200
#GOGOSTART
300000
#GOGOEND
200000
#GOGOSTART
300000200200100000100000,
201010200000100200000200100200200200100000
#GOGOEND
100000,
#GOGOSTART
#SCROLL 1.5
3
#SCROLL 1
2
#GOGOEND
22
#GOGOSTART
#SCROLL 1.5
30
#GOGOEND
#SCROLL 1
20
#GOGOSTART
#SCROLL 1.5
30
#SCROLL 1
221010,
201010200000100200000200100200200200100000200200,
10201202102010
#SCROLL 2
4
#SCROLL 1
2,
20201012
#GOGOEND
12221010,
#GOGOSTART
#SCROLL 1.5
3
#SCROLL 1
2
#GOGOEND
22
#GOGOSTART
#SCROLL 1.5
30
#GOGOEND
#SCROLL 1
20
#GOGOSTART
#SCROLL 1.5
30
#SCROLL 1
221010,
201010200000100200000200100200200200100000
#GOGOEND
100000,
#GOGOSTART
#SCROLL 1.5
3
#SCROLL 1
2
#GOGOEND
22
#GOGOSTART
#SCROLL 1.5
30
#GOGOEND
#SCROLL 1
20
#GOGOSTART
#SCROLL 1.5
30
#SCROLL 1
2210
#SCROLL 2
40,
#SCROLL 1
201010200000100200000200100200200200100000
#GOGOEND
100000,
#GOGOSTART
#SCROLL 1.5
3
#SCROLL 1
2
#GOGOEND
22
#GOGOSTART
#SCROLL 1.5
30
#GOGOEND
#SCROLL 1
20
#GOGOSTART
#SCROLL 1.5
30
#SCROLL 1
221010,
201010200000100200000200100200200200100000200200,
1020120210201022,
20201012
#GOGOEND
10403000,
#END