425 lines
4.8 KiB
Plaintext
425 lines
4.8 KiB
Plaintext
TITLE:Meltdown
|
|
SUBTITLE:--iroha(sasaki) & kuma(alfred) feat. Rin Kagamine
|
|
BPM:165
|
|
WAVE:Meltdown.ogg
|
|
OFFSET:-0.764
|
|
DEMOSTART:69.127
|
|
MAKER:Shoxk
|
|
|
|
COURSE:Oni
|
|
LEVEL:9
|
|
BALLOON:30,208
|
|
SCOREINIT:100
|
|
SCOREDIFF:154
|
|
NOTESDESIGNER3:Shoxk
|
|
|
|
#START
|
|
,
|
|
,
|
|
,
|
|
,
|
|
#MEASURE 2/4
|
|
,
|
|
#MEASURE 4/4
|
|
1020121020121120,
|
|
1000201110102000,
|
|
1000201110102020,
|
|
1000201110102000,
|
|
1000201110202222,
|
|
1000201110102000,
|
|
1000201110102020,
|
|
1000201110102000,
|
|
1000201120112010,
|
|
3030201110102010,
|
|
0011201110102010,
|
|
1010201110102010,
|
|
0011201111102020,
|
|
3030201110102010,
|
|
0011201110112010,
|
|
1010201110112010,
|
|
2212201020012000,
|
|
3000201110002011,
|
|
1010201010102010,
|
|
1000201110112010,
|
|
0022201122202010,
|
|
1000201110002011,
|
|
1010202010202010,
|
|
1022201010222010,
|
|
1210101210212022,
|
|
1010201210102000,
|
|
1010202112102011,
|
|
1010201210102000,
|
|
1010202112102222,
|
|
1010201210102000,
|
|
1010202112102011,
|
|
1010201210102000,
|
|
2212201020122210,
|
|
1000201110102010,
|
|
1010201000202010,
|
|
1000201110102011,
|
|
2010201120102210,
|
|
1000201110102010,
|
|
1010202000202210,
|
|
1000201122202030,
|
|
0020207000000000,
|
|
0000000000000080,
|
|
#MEASURE 2/4
|
|
#SCROLL 4
|
|
600000080,
|
|
#SCROLL 1
|
|
#MEASURE 4/4
|
|
#GOGOSTART
|
|
3010201211102000,
|
|
1010201211102022,
|
|
1010201211102000,
|
|
1010201211102011,
|
|
1011201022102010,
|
|
1011201122102210,
|
|
2011112222111120,
|
|
2011221122102000,
|
|
1011201112102011,
|
|
1011201112202012,
|
|
1011201111102021,
|
|
1011202112202022,
|
|
1011201211102011,
|
|
1011201112102011,
|
|
2010102020101020,
|
|
#GOGOEND
|
|
2212201020012220,
|
|
#GOGOSTART
|
|
6000000000000080,
|
|
1011201212102000,
|
|
1011201212102022,
|
|
1011201212102020,
|
|
1011201212102011,
|
|
1011201212102011,
|
|
1011201212112011,
|
|
1012201212122222,
|
|
#GOGOEND
|
|
1030202112102011,
|
|
1010201020112010,
|
|
3030202212102022,
|
|
1010202212102000,
|
|
1111222211112222,
|
|
1111222211112222,
|
|
1122112211221122,
|
|
1212121210002000,
|
|
7,
|
|
,
|
|
,
|
|
,
|
|
8,
|
|
#END
|
|
|
|
COURSE:Hard
|
|
LEVEL:7
|
|
BALLOON:10,20,30,10,208
|
|
SCOREINIT:1000
|
|
SCOREDIFF:1
|
|
|
|
#START
|
|
,
|
|
,
|
|
,
|
|
,
|
|
#MEASURE 2/4
|
|
,
|
|
#MEASURE 4/4
|
|
7000000000008000,
|
|
1000201010102000,
|
|
1000201010102000,
|
|
1000201010102000,
|
|
1000201010102010,
|
|
1000201110102010,
|
|
1000201110102010,
|
|
1000201110102010,
|
|
1000201110102000,
|
|
3030201010102010,
|
|
0010201110102000,
|
|
1010201010102010,
|
|
0010222010102000,
|
|
3030201010102010,
|
|
0010201110102000,
|
|
1010201010102010,
|
|
2202201010004000,
|
|
3000201010002010,
|
|
1010201010202010,
|
|
1000201010002010,
|
|
0020201110102010,
|
|
1000201010002010,
|
|
1020201010202010,
|
|
1000201110102010,
|
|
0010201022202010,
|
|
1000201011102000,
|
|
1000201011102010,
|
|
1000201011102000,
|
|
1000201011102220,
|
|
1000201110102000,
|
|
1000201110102000,
|
|
1000201110102000,
|
|
2202201020222010,
|
|
3000201010202010,
|
|
1010201000202010,
|
|
1000201010202022,
|
|
2010102220101010,
|
|
1000201010202010,
|
|
1020201000202010,
|
|
1000201011102030,
|
|
0020207000000000,
|
|
0000000000000080,
|
|
#MEASURE 2/4
|
|
#SCROLL 2.5
|
|
600000080,
|
|
#SCROLL 1
|
|
#MEASURE 4/4
|
|
#GOGOSTART
|
|
1010201110102010,
|
|
1110201110102000,
|
|
1010201110202010,
|
|
1110201110202000,
|
|
1010201110102010,
|
|
1110201110202010,
|
|
2010102220101020,
|
|
2010102220104000,
|
|
3010201110102010,
|
|
1110201110102000,
|
|
1010201110102010,
|
|
1110201110202220,
|
|
1010201110102010,
|
|
1110201110202010,
|
|
2010102020101022,
|
|
#GOGOEND
|
|
2010102020003000,
|
|
#GOGOSTART
|
|
5000000080101050,
|
|
,
|
|
,
|
|
8000200020002000,
|
|
5,
|
|
0000000080202070,
|
|
,
|
|
0000000000000080,
|
|
#GOGOEND
|
|
3030201110102011,
|
|
1010201110102000,
|
|
1010201110102000,
|
|
1110201110202000,
|
|
1110222011102220,
|
|
2220111022201110,
|
|
5000000000000080,
|
|
7000000000802000,
|
|
7,
|
|
,
|
|
,
|
|
,
|
|
8,
|
|
#END
|
|
|
|
COURSE:Normal
|
|
LEVEL:5
|
|
BALLOON:10,10,25,120
|
|
SCOREINIT:1000
|
|
SCOREDIFF:7
|
|
|
|
#START
|
|
,
|
|
,
|
|
,
|
|
,
|
|
#MEASURE 2/4
|
|
,
|
|
#MEASURE 4/4
|
|
#SCROLL 1.5
|
|
3,
|
|
#SCROLL 1
|
|
10200121,
|
|
10200120,
|
|
10200121,
|
|
10200220,
|
|
10220121,
|
|
10220120,
|
|
10220121,
|
|
10212020,
|
|
33200121,
|
|
01212020,
|
|
11200121,
|
|
02122020,
|
|
33200121,
|
|
01212020,
|
|
11200120,
|
|
70000080,
|
|
30211021,
|
|
10211220,
|
|
10211021,
|
|
00221002,
|
|
10211021,
|
|
11201220,
|
|
10211021,
|
|
02100221,
|
|
10210120,
|
|
10210120,
|
|
10210120,
|
|
10212120,
|
|
10210120,
|
|
10210120,
|
|
10210120,
|
|
70000080,
|
|
10201120,
|
|
11210000,
|
|
10201120,
|
|
12201220,
|
|
10201120,
|
|
11210000,
|
|
10201123,
|
|
0020207000000000,
|
|
0000000000000080,
|
|
#MEASURE 2/4
|
|
#SCROLL 1.5
|
|
600000080,
|
|
#SCROLL 1
|
|
#MEASURE 4/4
|
|
#GOGOSTART
|
|
10201120,
|
|
10210121,
|
|
00211221,
|
|
10210121,
|
|
00211112,
|
|
20220110,
|
|
20122112,
|
|
21122110,
|
|
10201120,
|
|
10210121,
|
|
00211221,
|
|
10210121,
|
|
10201121,
|
|
10210121,
|
|
20122112,
|
|
#GOGOEND
|
|
21122030,
|
|
#GOGOSTART
|
|
50000080,
|
|
10210120,
|
|
10210120,
|
|
10211120,
|
|
10210120,
|
|
10211220,
|
|
10210120,
|
|
10212220,
|
|
#GOGOEND
|
|
11200121,
|
|
01211020,
|
|
11200121,
|
|
01212220,
|
|
50085008,
|
|
50085008,
|
|
60000080,
|
|
60008020,
|
|
7,
|
|
,
|
|
,
|
|
,
|
|
8,
|
|
#END
|
|
|
|
COURSE:Easy
|
|
LEVEL:4
|
|
BALLOON:5,10,20,30,120
|
|
SCOREDIFF:750
|
|
SCOREINIT:250
|
|
|
|
#START
|
|
,
|
|
,
|
|
,
|
|
,
|
|
#MEASURE 2/4
|
|
,
|
|
#MEASURE 4/4
|
|
70000080,
|
|
1,
|
|
1,
|
|
1,
|
|
1,
|
|
1,
|
|
1,
|
|
1,
|
|
50000080,
|
|
1,
|
|
11,
|
|
1,
|
|
11,
|
|
1,
|
|
11,
|
|
1,
|
|
70000080,
|
|
11,
|
|
1,
|
|
11,
|
|
1,
|
|
11,
|
|
1,
|
|
11,
|
|
22,
|
|
11,
|
|
1,
|
|
11,
|
|
11,
|
|
11,
|
|
1,
|
|
11,
|
|
50000080,
|
|
31,
|
|
11,
|
|
11,
|
|
22,
|
|
11,
|
|
11,
|
|
10001004,
|
|
0000007000000000,
|
|
0000000000000080,
|
|
#MEASURE 2/4
|
|
600000080,
|
|
#MEASURE 4/4
|
|
#GOGOSTART
|
|
3110,
|
|
10010000,
|
|
11,
|
|
10010000,
|
|
11,
|
|
10010000,
|
|
11,
|
|
22,
|
|
3110,
|
|
10010000,
|
|
11,
|
|
10010000,
|
|
11,
|
|
10010000,
|
|
11,
|
|
#GOGOEND
|
|
22,
|
|
#GOGOSTART
|
|
5000000080100050,
|
|
,
|
|
,
|
|
8000200020002000,
|
|
5,
|
|
0000000080200070,
|
|
,
|
|
0000000000000080,
|
|
#GOGOEND
|
|
1110,
|
|
1110,
|
|
1110,
|
|
22,
|
|
50085008,
|
|
50085008,
|
|
60000080,
|
|
60008020,
|
|
7,
|
|
,
|
|
,
|
|
,
|
|
8,
|
|
#END
|