Files
2025-06-11 19:53:16 -04:00

401 lines
4.0 KiB
Plaintext
Raw Permalink Blame History

This file contains ambiguous Unicode characters
This file contains Unicode characters that might be confused with other characters. If you think that this is intentional, you can safely ignore this warning. Use the Escape button to reveal them.
//
TITLE:Sentimental Crisis
SUBTITLE:--halca / Kaguya-sama:Love is War
BPM:154
WAVE:Sentimental Crisis.ogg
OFFSET:-0.901667
DEMOSTART:60.1971
MAKER:sakurada0291 & Colin
COURSE:Edit
LEVEL:8
BALLOON:
SCOREINIT:
SCOREDIFF:
NOTESDESIGNER4:Colin
#START
#BARLINEOFF
0,
#BARLINEON
1,
1,
1,
1121,
1112,
12102020,
1000101020102121,
2000000000001211,
#BPMCHANGE 167
#SCROLL 1
#GOGOSTART
2010201110102022,
1010201210104000,
0011201010104000,
000000000000000000202020000000100000100000100200,
#GOGOEND
1000001020102012,
1011221010102022,
1010101020112010,
1010201021112010,
1211201020102022,
1010201212101020,
11211211,
1012112000000000,
1011201022102010,
2010201020221022,
1010102010102022,
1010212210112010,
1011202010112020,
1010211120112000,
1000201020001120,
1010201120102020,
1010201020101210,
2010201120102010,
1012101020112010,
1020101120101010,
1011201022112210,
2011201020102222,
1000201010102012,
1000200010221000,
0000201120102022,
1010200010221111,
2010211110102222,
100000100000000000000000202020202020100100100100,
#GOGOSTART
2011201020102022,
1010202210102010,
1010202210102122,
1010202210102020,
1010201210102122,
1010201210102222,
11121120,
0011222210201010,
2010201210102022,
1011201210102010,
2011201210102011,
2010201210102010,
2011201210102012,
1010201210101111,
21212120,
0011211120102000,
1010201210102022,
1010201210102022,
1010101012121211,
#GOGOEND
20222220,
#END
COURSE:Oni
LEVEL:6
BALLOON:16
SCOREINIT:
SCOREDIFF:
NOTESDESIGNER3:sakurada0291
#START
#BARLINEOFF
#SCROLL 0.8
0,
0,
,
,
,
,
,
7,
8,
#BARLINEON
#BPMCHANGE 167
#SCROLL 1
10211221,
21210120,
0022201020105000,
0000000000000800,
10011020,
10020220,
10010221,
20201122,
10010121,
10121220,
10111111,
33330000,
10121212,
10221212,
1122,
1000200010221020,
1000102010221020,
1000000020221022,
10112122,
12012050,
00000801,
20120250,
00008022,
1020201000201022,
10201122,
1000200010102210,
1000200010102011,
20201150,
,
8000000000000011,
2010102010101110,
4040000010102222,
#GOGOSTART
1000201110102000,
1010201110102000,
1000201120102020,
1010222011102020,
1000200110102011,
2010200110112220,
4436,
0000802210201000,
1000201110102000,
1010201110102000,
1000201120102020,
1010221021102220,
1000200110102011,
2010200110112110,
4346,
0000800010210210,
1000201110102011,
1010201110102000,
30333333,
#GOGOEND
30222220,
#END
COURSE:Hard
LEVEL:6
BALLOON:14
SCOREINIT:
SCOREDIFF:
NOTESDESIGNER2:sakurada0291
#START
#BARLINEOFF
#SCROLL 0.8
0,
0,
,
,
,
,
,
7,
8,
#BARLINEON
#BPMCHANGE 167
#SCROLL 1
10201120,
20210120,
0022201020005000,
0000000000000800,
10010020,
10020220,
10010020,
20201100,
10010020,
10010220,
10111111,
33330000,
10021202,
10021202,
1122,
1011,
10021202,
1000000020222000,
10112120,
1025,
00000801,
20020250,
00008022,
10210210,
10201120,
1000200010002220,
10001021,
20201150,
,
80000001,
2000102000101110,
4040000000002220,
#GOGOSTART
10201120,
10201120,
10212120,
1000202011102000,
10201120,
2010200010102220,
4436,
00801110,
10201120,
10201120,
10212120,
1000201011102000,
10201120,
2010200010102210,
4346,
0000800010010010,
10210120,
10211120,
30333333,
#GOGOEND
30222020,
#END
COURSE:Normal
LEVEL:4
BALLOON:8,12
SCOREINIT:
SCOREDIFF:
NOTESDESIGNER1:sakurada0291
#START
#BARLINEOFF
#SCROLL 0.8
0,
0,
,
,
,
,
,
7,
8,
#BARLINEON
#BPMCHANGE 167
#SCROLL 1
1011,
20020020,
0111,
,
10010000,
10010020,
10010000,
2210,
10010000,
10010020,
1111,
30330000,
1011,
1011,
1122,
1011,
1011,
1022,
10010210,
1015,
00000800,
10010050,
0008,
10010050,
0000080010002000,
1122,
10001021,
20201170,
,
0080,
10010010,
44000000,
#GOGOSTART
1212,
0212,
0222,
1110,
1202,
1202,
3336,
00000800,
1212,
0212,
0222,
1110,
1202,
1201,
4446,
0080,
10200120,
10200120,
3333,
#GOGOEND
3022,
#END
COURSE:Easy
LEVEL:2
BALLOON:6,10
SCOREINIT:
SCOREDIFF:
NOTESDESIGNER0:sakurada0291
#START
#BARLINEOFF
#SCROLL 0.8
0,
0,
,
,
,
,
,
7,
8,
#BARLINEON
#BPMCHANGE 167
#SCROLL 1
1,
2002,
0011,
,
1,
1010,
1,
2010,
1,
1010,
1010,
3,
1,
1,
1020,
1001,
1010,
1020,
1010,
1005,
00000800,
1005,
0008,
1005,
0080,
1020,
1,
2007,
,
0080,
1010,
3,
#GOGOSTART
1,
1,
1010,
1002,
1010,
1002,
3036,
00000800,
1,
1,
1010,
1002,
1010,
1001,
4046,
0080,
1,
1,
3030,
#GOGOEND
3002,
#END