Files
2025-12-20 15:52:49 -05:00

983 lines
7.6 KiB
Plaintext
Raw Permalink Blame History

This file contains ambiguous Unicode characters
This file contains Unicode characters that might be confused with other characters. If you think that this is intentional, you can safely ignore this warning. Use the Escape button to reveal them.
TITLE:Affection Addiction
SUBTITLE:--KAT×Aku-P feat. POPY
TITLEJA:Affection Addiction
SUBTITLEJA:KAT×Aku-P feat. POPY
PREIMAGE:Affection Addiction.jpg
BGMOVIE:Affection Addiction.mp4
WAVE:Affection Addiction.ogg
BPM:160
OFFSET:-0.187
DEMOSTART:48.937
GENRE:ボーカロイド
MAKER:Colin
COURSE:Easy
LEVEL:2
SCOREINIT:
SCOREDIFF:
NOTESDESIGNER0:Colin
#START
,
3001,
,
1001,
,
1001,
,
1001,
,
4002,
,
2002,
,
2002,
,
2002,
,
1010,
1110,
1010,
1,
2020,
2220,
2020,
2,
3003,
,
3003,
,
3010,
1,
2020,
2,
#GOGOSTART
3010,
1110,
1010,
1,
2020,
2220,
2000200
#GOGOEND
0,
#GOGOSTART
2
#GOGOEND
0
#GOGOSTART
0
#GOGOEND
0
#GOGOSTART
0
#GOGOEND
000,
#GOGOSTART
3010,
1,
2020,
2,
1010,
1110,
1000100
#GOGOEND
0,
#GOGOSTART
1
#GOGOEND
0
#GOGOSTART
0
#GOGOEND
0
#GOGOSTART
00
#GOGOEND
00,
#GOGOSTART
4068,
3,
3600,
#GOGOEND
8
#GOGOSTART
000,
4068,
0600,
8,
300
#GOGOEND
0,
#GOGOSTART
4020,
2220,
2020,
2220,
#GOGOEND
0
#GOGOSTART
020,
2020,
2020,
222
#GOGOEND
0,
3,
,
,
,
1010,
1011,
1010,
1,
#GOGOSTART
3
#GOGOEND
000
#GOGOSTART
1
#GOGOEND
000,
#GOGOSTART
10
#GOGOEND
001000
#GOGOSTART
1
#GOGOEND
00
#GOGOSTART
0
#GOGOEND
00
#GOGOSTART
0
#GOGOEND
0,
1
#GOGOSTART
010,
1,
2020,
2220,
2000200
#GOGOEND
0,
#GOGOSTART
2
#GOGOEND
0
#GOGOSTART
0
#GOGOEND
0
#GOGOSTART
00
#GOGOEND
00,
#GOGOSTART
3010,
1,
2020,
2,
1010,
1110,
1000100
#GOGOEND
0,
#GOGOSTART
1
#GOGOEND
0
#GOGOSTART
0
#GOGOEND
0
#GOGOSTART
00
#GOGOEND
00,
#GOGOSTART
4020,
2220,
2020,
2
#GOGOEND
0
#GOGOSTART
0
#GOGOEND
0
#GOGOSTART
0
#GOGOEND
0
#GOGOSTART
0
#GOGOEND
0,
#GOGOSTART
2020,
2022,
#GOGOEND
3,
000000
#GOGOSTART
4
#GOGOEND
0,
#END
COURSE:Normal
LEVEL:4
SCOREINIT:
SCOREDIFF:
NOTESDESIGNER1:Colin
#START
,
3001,
,
1001,
,
1001,
,
1001,
,
4002,
00200200,
2002,
00200200,
2002,
00200200,
2002,
,
10001011,
1110,
1010,
1110,
20002022,
2220,
2022,
2,
3003,
00111000,
3013,
0010,
3110,
1110,
2222,
2,
#GOGOSTART
30111010,
1110,
10011011,
1,
20202022,
2220,
2022202
#GOGOEND
0,
#GOGOSTART
2
#GOGOEND
0
#GOGOSTART
0
#GOGOEND
0
#GOGOSTART
0
#GOGOEND
000,
#GOGOSTART
30011000,
1110,
20022000,
2220,
1110,
10111000,
1010101
#GOGOEND
0,
#GOGOSTART
1
#GOGOEND
0
#GOGOSTART
0
#GOGOEND
0
#GOGOSTART
00
#GOGOEND
00,
#GOGOSTART
4068,
3444,
3600,
#GOGOEND
8
#GOGOSTART
000,
4468,
0600,
8033,
300
#GOGOEND
0,
#GOGOSTART
4022,
2220,
2022,
2222,
#GOGOEND
0
#GOGOSTART
020,
2220,
2022,
222
#GOGOEND
0,
3,
,
,
,
1011,
10001011,
10101011,
1,
#GOGOSTART
3
#GOGOEND
300
#GOGOSTART
3
#GOGOEND
300,
#GOGOSTART
30
#GOGOEND
300000
#GOGOSTART
3
#GOGOEND
00
#GOGOSTART
0
#GOGOEND
00
#GOGOSTART
0
#GOGOEND
0,
0
#GOGOSTART
310,
1110,
20222020,
2220,
2020200
#GOGOEND
0,
#GOGOSTART
4
#GOGOEND
0
#GOGOSTART
0
#GOGOEND
0
#GOGOSTART
40
#GOGOEND
00,
#GOGOSTART
30001011,
1110,
20022000,
2220,
10001011,
1110,
1000101
#GOGOEND
0,
#GOGOSTART
1
#GOGOEND
0
#GOGOSTART
0
#GOGOEND
0
#GOGOSTART
00
#GOGOEND
00,
#GOGOSTART
40002022,
2220,
2022,
2
#GOGOEND
0
#GOGOSTART
0
#GOGOEND
0
#GOGOSTART
0
#GOGOEND
0
#GOGOSTART
0
#GOGOEND
0,
#GOGOSTART
20002022,
2222,
#GOGOEND
3,
000000
#GOGOSTART
4
#GOGOEND
0,
#END
COURSE:Hard
LEVEL:6
SCOREINIT:
SCOREDIFF:
NOTESDESIGNER2:Colin
#START
,
3003,
00300300,
3003,
00300300,
3003,
00300300,
3003,
00300300,
30222020,
22020000,
10221210,
11050800,
10222010,
12020010,
1212,
12020000,
1121,
1212,
1212,
1,
1212,
1222,
1212,
1,
30012010,
1120,
10012012,
1000101020001111,
1222,
1222,
1222,
0034,
#GOGOSTART
30212120,
11210121,
10221120,
12210122,
10212120,
11210121,
1022112
#GOGOEND
0,
#GOGOSTART
3
#GOGOEND
0
#GOGOSTART
3
#GOGOEND
0
#GOGOSTART
3
#GOGOEND
000,
#GOGOSTART
30012010,
1001001020001000,
10012000,
1001001020102200,
10201120,
10210121,
2121212
#GOGOEND
1,
#GOGOSTART
3
#GOGOEND
0
#GOGOSTART
3
#GOGOEND
0
#GOGOSTART
30
#GOGOEND
00,
#GOGOSTART
300000222200,
1212,
100222201010,
#GOGOEND
1
#GOGOSTART
300,
3120,
1212,
1221,
200
#GOGOEND
0,
#GOGOSTART
300200202200,
1212,
100200202200,
1212,
#GOGOEND
100
#GOGOSTART
200202200,
1212,
100200202200,
112
#GOGOEND
0,
3,
,
20020050,
0080,
20020020,
02002020,
5,
8034,
#GOGOSTART
3
#GOGOEND
300
#GOGOSTART
3
#GOGOEND
300,
#GOGOSTART
30
#GOGOEND
300000
#GOGOSTART
3
#GOGOEND
00
#GOGOSTART
3
#GOGOEND
00
#GOGOSTART
3
#GOGOEND
0,
00
#GOGOSTART
401120,
12210122,
10212120,
11210121,
1022112
#GOGOEND
0,
#GOGOSTART
3
#GOGOEND
0
#GOGOSTART
3
#GOGOEND
0
#GOGOSTART
30
#GOGOEND
00,
#GOGOSTART
30012010,
1001001020001000,
10012000,
1001001020102200,
10201120,
10210121,
2121212
#GOGOEND
1,
#GOGOSTART
3
#GOGOEND
0
#GOGOSTART
3
#GOGOEND
0
#GOGOSTART
30
#GOGOEND
00,
#GOGOSTART
30120212,
02121120,
10120212,
0
#GOGOEND
2
#GOGOSTART
3
#GOGOEND
0
#GOGOSTART
3
#GOGOEND
0
#GOGOSTART
3
#GOGOEND
0,
#GOGOSTART
30120212,
02121120,
#GOGOEND
3,
000000
#GOGOSTART
4
#GOGOEND
0,
#END
COURSE:Oni
LEVEL:8
BALLOON:6
SCOREINIT:
SCOREDIFF:
NOTESDESIGNER3:Colin
#START
,
3003,
00300300,
3003,
00300300,
3003,
00300300,
3003,
00300300,
30121020,
12020212,
10212120,
12050800,
01222021,
22120121,
20122121,
12050800,
30221120,
10221120,
10201120,
1000201110102000,
10201120,
10221122,
10201120,
1000201020101200,
3000101020221020,
1011101020102020,
1010202050801212,
1012110200221111,
1000102210221022,
1022102210221020,
1222122212221222,
1034,
#GOGOSTART
#SCROLL 1.5
3
#SCROLL 1
002102012021020,
1002102012021020,
1000201020112020,
1011201000204020,
3002102012021020,
1002102012021020,
20112010201120
#GOGOEND
20,
#GOGOSTART
#SCROLL 1.5
3
#SCROLL 1
0
#GOGOEND
20
#GOGOSTART
#SCROLL 1.5
3
#SCROLL 1
0
#GOGOEND
20
#GOGOSTART
#SCROLL 1.5
3
#SCROLL 1
0
#GOGOEND
002020,
#GOGOSTART
#SCROLL 1.5
3
#SCROLL 1
001201020012020,
1021021020102020,
1021021022112020,
1021021020102102,
1010201212102020,
1010201212102010,
20112010201120
#GOGOEND
20,
#GOGOSTART
#SCROLL 1.5
3
#SCROLL 1
0
#GOGOEND
20
#GOGOSTART
#SCROLL 1.5
3
#SCROLL 1
0
#GOGOEND
20
#GOGOSTART
#SCROLL 1.5
3
#SCROLL 1
000
#GOGOEND
2000,
#GOGOSTART
#SCROLL 1.5
300000
#SCROLL 1.5
300
#SCROLL 1
000101010200000,
#SCROLL 1.5
3
#SCROLL 1
0004000
#SCROLL 1.5
3
#SCROLL 1
0004000,
#SCROLL 1.5
300
#SCROLL 1
000000000100010001000
#SCROLL 1.5
400
#SCROLL 1
00000
#SCROLL 1.5
300
#SCROLL 1
00000
#SCROLL 1.5
400
#SCROLL 1
00000,
#GOGOEND
#SCROLL 1.5
300
#SCROLL 1
000000000
#GOGOSTART
#SCROLL 1.5
400
#SCROLL 1
000001000200000001000200000002000,
100200211200,
101201202102,
100211202020,
202022202020700000
#GOGOEND
800000,
#GOGOSTART
#SCROLL 1.5
300
#SCROLL 1
000000000200000001000200010001000200000001000,
201201201202,
111222101202,
100222201010202020100000,
#GOGOEND
111
#GOGOSTART
200211201,
222102101200,
101212101202,
201110201010201110
#GOGOEND
200000,
4,
,
,
,
3022102210221022,
1022102210221020,
1222122212221222,
1034,
#GOGOSTART
#SCROLL 1.5
3
#GOGOEND
300
#GOGOSTART
3
#GOGOEND
300,
#GOGOSTART
30
#GOGOEND
300000
#GOGOSTART
3
#GOGOEND
00
#GOGOSTART
3
#GOGOEND
00
#GOGOSTART
3
#GOGOEND
0,
#SCROLL 1
000000000000
#GOGOSTART
#SCROLL 1.5
4000
#SCROLL 1
00100000200000100100200000200000,
1011201000204020,
3002102012021020,
1002102012021020,
20112010201120
#GOGOEND
20,
#GOGOSTART
#SCROLL 1.5
3
#SCROLL 1
0
#GOGOEND
20
#GOGOSTART
#SCROLL 1.5
3
#SCROLL 1
0
#GOGOEND
20
#GOGOSTART
#SCROLL 1.5
3
#SCROLL 1
000
#GOGOEND
2020,
#GOGOSTART
#SCROLL 1.5
3
#SCROLL 1
001201020012020,
1021021020102020,
1021021022112020,
1021021020102102,
1010201212102020,
1010201212102010,
20112010201120
#GOGOEND
20,
#GOGOSTART
#SCROLL 1.5
3
#SCROLL 1
0
#GOGOEND
20
#GOGOSTART
#SCROLL 1.5
3
#SCROLL 1
0
#GOGOEND
20
#GOGOSTART
#SCROLL 1.5
3
#SCROLL 1
000
#GOGOEND
2000,
#GOGOSTART
#SCROLL 1.5
3000
#SCROLL 1
00100000200000200200100200100000200000200000,
1000202212102020,
1000202210112020,
1
#GOGOEND
2
#GOGOSTART
3
#GOGOEND
0
#GOGOSTART
4
#GOGOEND
0
#GOGOSTART
3
#GOGOEND
0,
#GOGOSTART
#SCROLL 1.5
3
#SCROLL 1
010202212102020,
1000202212102020,
#GOGOEND
#SCROLL 1.5
3
#SCROLL 1
000,
000000000000
#GOGOSTART
#SCROLL 2
4
#SCROLL 1
0
#GOGOEND
00,
#END